<?xml version="1.0" standalone="no"?>
<!DOCTYPE svg PUBLIC "-//W3C//DTD SVG 1.1//EN" "http://www.w3.org/Graphics/SVG/1.1/DTD/svg11.dtd" >
<svg xmlns="http://www.w3.org/2000/svg">
<metadata></metadata>
<defs>
<font id="DINRegular" horiz-adv-x="1112" >
<font-face units-per-em="2048" ascent="1638" descent="-410" />
<missing-glyph horiz-adv-x="475" />
<glyph horiz-adv-x="0" />
<glyph horiz-adv-x="2048" />
<glyph horiz-adv-x="1024" d="M176 1520q7 -157 108 -238q90 -72 230 -72q222 0 302 168q28 58 32 142h-178q-8 -66 -52.5 -94.5t-103.5 -28.5t-104 28.5t-54 94.5h-180z" />
<glyph horiz-adv-x="1024" d="M375 1245h274v217h-274v-217z" />
<glyph horiz-adv-x="1024" d="M244 1464q0 -109 78 -189q78 -79 190 -79t190 79q78 80 78 189t-78 191q-75 78 -190 78q-112 0 -190 -79q-78 -80 -78 -190zM393 1464q0 49 35 84t84 35t84 -35t35 -84t-35 -85t-84 -36t-84 36t-35 85z" />
<glyph unicode="&#xa;" horiz-adv-x="1024" d="M117 1237h178l233 348h-282zM541 1237h176l235 348h-282z" />
<glyph horiz-adv-x="1024" d="M346 -123l90 -299h248l-139 299h-199z" />
<glyph horiz-adv-x="1024" d="M135 1583l271 -346h212l271 346h-207l-170 -184l-170 184h-207z" />
<glyph unicode="&#xd;" horiz-adv-x="475" />
<glyph horiz-adv-x="425" d="M-236 0h207l691 1458h-207z" />
<glyph horiz-adv-x="1232" d="M63 834h111v-834h266v834h197v202h-197v117q0 96 95 96h102v226h-152q-150 0 -236 -97q-75 -85 -75 -209v-133h-111v-202zM815 1249h275v217h-275v-217zM819 0h266v1036h-266v-1036z" />
<glyph horiz-adv-x="1327" d="M63 834h111v-834h266v834h197v202h-197v117q0 96 95 96h102v226h-152q-150 0 -236 -97q-75 -85 -75 -209v-133h-111v-202zM815 305q0 -126 73 -209q85 -96 238 -96h152v225h-102q-51 0 -73 24.5t-22 72.5v1136h-266v-1153z" />
<glyph horiz-adv-x="1214" d="M76 416l131 84v-500h946v254h-661v426l262 166v235l-262 -166v543h-285v-721l-131 -84v-237z" />
<glyph horiz-adv-x="688" d="M61 551l111 67v-313q0 -126 73 -209q85 -96 236 -96h152v225h-103q-51 0 -71.5 24.5t-20.5 72.5v456l123 78v223l-123 -75v454h-266v-614l-111 -70v-223z" />
<glyph horiz-adv-x="1122" d="M82 0h958v254h-624l624 979v225h-931v-254h596l-623 -975v-229zM190 1945l271 -346h212l271 346h-207l-170 -184l-170 184h-207z" />
<glyph horiz-adv-x="978" d="M76 0h813v240h-479l479 624v203h-787v-240h447l-473 -624v-203zM121 1583l271 -346h212l271 346h-207l-170 -184l-170 184h-207z" />
<glyph unicode=" "  horiz-adv-x="475" />
<glyph unicode="&#x09;" horiz-adv-x="475" />
<glyph unicode="&#xa0;" horiz-adv-x="475" />
<glyph unicode="!" horiz-adv-x="710" d="M229 1458l64 -1001h201l63 1001h-328zM252 0h283v272h-283v-272z" />
<glyph unicode="&#x22;" horiz-adv-x="950" d="M139 1026h250v432h-250v-432zM561 1026h248v432h-248v-432z" />
<glyph unicode="#" horiz-adv-x="1415" d="M123 389h141l-61 -389h280l62 389h237l-63 -389h280l62 389h182v250h-141l33 221h182v248h-141l55 362h-279l-57 -362h-238l58 362h-281l-57 -362h-182v-248h143l-33 -221h-182v-250zM584 639l34 221h236l-33 -221h-237z" />
<glyph unicode="$" horiz-adv-x="1267" d="M39 180q100 -102 218 -145t265 -47v-221h207v229q199 25 317 135q123 116 123 299q0 282 -225 378q-65 28 -166 44l-78 12v357q159 -10 252 -99l181 178q-160 152 -404 168v183h-207v-185q-201 -23 -313.5 -141.5t-112.5 -297.5q0 -264 224 -363q71 -31 163 -43l66 -9 v-370q-212 9 -326 123zM371 1041q0 65 44 115t134 63v-342q-88 12 -123 46q-55 53 -55 118zM700 246v352q41 -6 78 -15.5t68 -37.5q45 -43 45 -121q0 -157 -191 -178z" />
<glyph unicode="%" horiz-adv-x="1736" d="M106 987q0 -132 89 -210q80 -70 208 -70q202 0 273 158q24 52 24 122v203q0 134 -88 209q-83 71 -209 71q-125 0 -208 -71q-89 -76 -89 -209v-203zM299 995v187q0 117 104 116q105 0 105 -116v-187q0 -116 -105 -116q-104 0 -104 116zM420 0h209l690 1458h-209zM1036 268 q0 -133 88 -210q81 -70 209 -70t209 70q88 77 88 210v203q0 134 -88 209q-84 72 -209 72t-209 -72q-88 -75 -88 -209v-203zM1229 276v187q0 117 104 117q49 0 77 -29t28 -88v-187q0 -116 -104.5 -116t-104.5 116z" />
<glyph unicode="&#x26;" horiz-adv-x="1476" d="M123 430q0 -207 119.5 -324.5t361.5 -117.5q189 0 320 94q32 24 57 45l106 -127h338l-262 309q139 153 156 453h-252q-9 -168 -74 -256l-245 291q87 58 104 75q68 49 108.5 108.5t40.5 139.5t-25.5 143.5t-74.5 109.5q-103 97 -272 97q-179 0 -286 -96 q-103 -93 -103 -244t145 -309q-118 -78 -166 -141q-96 -126 -96 -250zM381 428q0 84 41 133t106 96l291 -342q-97 -86 -217 -86q-92 0 -156 57q-65 58 -65 142zM508 1129q0 46 30.5 80t89 34t90.5 -34t32 -79t-25 -74.5t-59 -54.5l-22 -15q-23 -15 -40 -25 q-39 45 -67.5 83.5t-28.5 84.5z" />
<glyph unicode="'" horiz-adv-x="530" d="M139 1026h252v432h-252v-432z" />
<glyph unicode="(" horiz-adv-x="688" d="M164 283q0 -171 44 -247.5t91 -126.5t98 -102l178 179q-37 37 -62.5 64.5t-54 77.5t-28.5 167v868q0 117 29 167t54.5 78t61.5 65l-178 178q-51 -51 -98 -101.5t-82 -110.5q-53 -91 -53 -263v-893z" />
<glyph unicode=")" horiz-adv-x="688" d="M111 -12l180 -181q51 51 98 101.5t82 110.5q53 91 53 264v893q0 170 -44 246.5t-91 126.5t-98 102l-180 -181q37 -37 62.5 -63.5t54 -76.5t28.5 -167v-868q0 -117 -29 -167t-54.5 -76.5t-61.5 -63.5z" />
<glyph unicode="*" horiz-adv-x="1011" d="M113 942l92 -162l217 135l-10 -256h188l-8 256l215 -135l94 162l-227 119l227 119l-94 163l-215 -137l8 256h-188l10 -256l-217 137l-92 -163l225 -119z" />
<glyph unicode="+" d="M102 442h330v-327h250v327h328v250h-328v328h-250v-328h-330v-250z" />
<glyph unicode="," horiz-adv-x="571" d="M139 291v-629l293 225v404h-293z" />
<glyph unicode="-" horiz-adv-x="872" d="M121 461h631v248h-631v-248z" />
<glyph unicode="." horiz-adv-x="583" d="M139 0h305v303h-305v-303z" />
<glyph unicode="/" horiz-adv-x="825" d="M0 -152h250l584 1762h-250z" />
<glyph unicode="0" d="M113 422q0 -202 133 -322q124 -112 311 -112q188 0 311 112q131 121 131 322v614q0 202 -131 322q-124 112 -311 112q-186 0 -311 -112q-133 -118 -133 -322v-614zM379 424v608q0 92 50 145.5t128 53.5t127 -53.5t49 -145.5v-608q0 -92 -49 -144.5t-127 -52.5t-128 52.5 t-50 144.5z" />
<glyph unicode="1" d="M211 913l297 258v-1171h266v1458h-266l-297 -258v-287z" />
<glyph unicode="2" d="M121 0h887v240h-564l408 473q88 103 112 149q44 89 44 186t-33 176t-91 133q-123 113 -319 113q-193 0 -317 -112q-127 -116 -127 -314h266q0 143 113 178q32 9 65 9q86 0 131 -50.5t45 -116.5t-17 -105t-58 -87l-545 -632v-240z" />
<glyph unicode="3" d="M86 418q4 -216 144 -329q126 -101 321 -101q200 0 325 108q138 118 138 326q0 133 -55.5 212t-133.5 120q168 91 168 299q0 184 -125 301q-124 116 -319 116q-190 0 -313 -110q-130 -115 -134 -305h267q4 84 54 130t124 46t127 -47t53 -132q0 -190 -184 -190h-39v-231h39 q98 0 151.5 -54.5t53.5 -149.5t-55.5 -147.5t-141.5 -52.5q-132 0 -181 106q-16 36 -18 85h-266z" />
<glyph unicode="4" d="M63 207h596v-207h256v207h134v252h-134v272h-256v-272h-305l500 999h-291l-500 -999v-252z" />
<glyph unicode="5" d="M117 408q6 -80 28.5 -158t80.5 -136q126 -126 335 -126q204 0 322 118q80 80 104.5 171.5t24.5 205t-22.5 213t-108.5 185.5q-98 98 -273 98q-74 0 -132 -22.5t-87 -51.5v314h590v239h-832v-823h244q14 43 54 81t130 38q170 0 170 -262q0 -161 -52 -213t-132 -52 q-157 0 -178 181h-266z" />
<glyph unicode="6" d="M98 434q0 -105 35 -188.5t97 -141.5q124 -116 323 -116q198 0 323 120q132 125 132 330q0 104 -32 185.5t-86 136.5q-112 114 -265 114q-60 0 -109 -18l303 602h-291l-307 -631q-49 -100 -86 -194t-37 -199zM365 440q0 102 53 157.5t137 55.5t135 -57.5t51 -157.5 t-53 -155.5t-135 -55.5t-135 55.5t-53 157.5z" />
<glyph unicode="7" d="M102 989h254v230h385l-473 -1219h289l473 1219v239h-928v-469z" />
<glyph unicode="8" d="M90 405q0 -87 37 -168t101 -137q128 -112 329 -112t329 112q138 121 138 322t-184 330q107 72 148 196q16 47 16 125t-36 155t-96 131q-125 111 -315 111q-189 0 -315 -111q-133 -116 -133 -304q0 -152 106 -257q29 -28 57 -46q-119 -77 -164 -209q-18 -51 -18 -138z M356 428q0 86 57.5 144.5t143.5 58.5t143.5 -58.5t57.5 -144.5t-57.5 -143.5t-143.5 -57.5t-143.5 57.5t-57.5 143.5zM375 1046q0 79 52 132t130 53t129 -53t51 -132t-51 -131.5t-129 -52.5t-130 52.5t-52 131.5z" />
<glyph unicode="9" d="M104 1016q0 -193 119 -318q109 -114 266 -114q60 0 109 18l-303 -602h289l309 631q49 100 85 194.5t36 199t-35 188t-97 141.5q-124 116 -323 116q-198 0 -323 -120q-132 -125 -132 -334zM371 1020q0 100 53 155.5t135 55.5t135.5 -55.5t53.5 -157.5t-53.5 -157.5 t-137.5 -55.5t-135 57.5t-51 157.5z" />
<glyph unicode=":" horiz-adv-x="632" d="M190 0h304v303h-304v-303zM190 555h304v303h-304v-303z" />
<glyph unicode=";" horiz-adv-x="632" d="M190 555h304v303h-304v-303zM197 291v-629l290 225v404h-290z" />
<glyph unicode="&#x3c;" horiz-adv-x="2103" d="M102 584l789 -789h336l-668 664h1440v252h-1440l668 661h-336z" />
<glyph unicode="=" d="M102 238h908v249h-908v-249zM102 682h908v250h-908v-250z" />
<glyph unicode="&#x3e;" horiz-adv-x="2103" d="M102 459h1442l-667 -664h335l789 789l-789 788h-335l667 -661h-1442v-252z" />
<glyph unicode="?" horiz-adv-x="1071" d="M135 1061h266q0 72 41 121t121 49t124 -48t44 -120q0 -58 -59 -137l-152 -195q-41 -53 -59.5 -100t-18.5 -113v-61h267v43q0 59 36 104l152 201q43 57 71.5 117.5t28.5 148.5t-34.5 164t-94.5 128q-122 107 -303 107q-182 0 -304 -109q-126 -113 -126 -300zM434 0h283 v272h-283v-272z" />
<glyph unicode="@" horiz-adv-x="1552" d="M117 342q0 -134 28.5 -197t59.5 -100t74 -76l184 185q-55 51 -69 79q-21 46 -21 123v592q0 66 13 115t57 93q73 73 206 73h254q133 0 205 -72t72 -209v-92q-92 100 -242 100q-162 0 -258 -104q-61 -68 -77.5 -155t-16.5 -190.5t3 -158.5t13 -101q20 -93 80 -157 q96 -102 258 -102q86 0 141.5 26.5t104.5 79.5v-94l248 -6v960q0 127 -27 221.5t-98 165.5q-72 72 -168.5 98.5t-216.5 26.5h-295q-125 0 -219.5 -26.5t-165.5 -98.5q-72 -72 -99.5 -167t-27.5 -220v-612zM842 473q0 123 34.5 192.5t133.5 69.5q98 0 134 -69.5t36 -192.5 t-36 -193.5t-134 -70.5t-133 70.5t-35 193.5z" />
<glyph unicode="A" horiz-adv-x="1306" d="M10 0h297l88 258h518l86 -258h297l-532 1458h-223zM475 498l184 530l179 -530h-363z" />
<glyph unicode="B" horiz-adv-x="1347" d="M170 0h610q201 0 322 108q125 113 125 312q0 224 -201 328q63 28 118 103q62 86 62 198q0 188 -117.5 298.5t-332.5 110.5h-586v-1458zM455 254v358h297q98 0 144 -52t46 -126t-46 -127t-144 -53h-297zM455 868v336h278q92 0 140.5 -46t48.5 -122t-48.5 -122t-140.5 -46 h-278z" />
<glyph unicode="C" horiz-adv-x="1269" d="M121 729q0 -235 15 -318q28 -162 117 -252q169 -171 404 -171q324 0 471 260q48 86 66 201h-289q-23 -88 -80 -147.5t-166 -59.5q-150 0 -217 126q-27 52 -31.5 154.5t-4.5 206.5q0 210 11 272q16 89 53 132q74 84 186 84t169.5 -59.5t79.5 -147.5h289q-34 219 -186 344 q-139 116 -351 116q-234 0 -393 -159q-100 -100 -126 -253q-17 -94 -17 -329z" />
<glyph unicode="D" horiz-adv-x="1349" d="M170 0h526q246 0 385 139q108 108 135 277q13 76 13 198v281q0 172 -55 295q-31 67 -98 134q-134 134 -380 134h-526v-1458zM455 254v950h215q139 0 213 -90q40 -50 48.5 -113t10.5 -123.5t2 -184.5t-11 -212t-49 -135q-74 -92 -214 -92h-215z" />
<glyph unicode="E" horiz-adv-x="1239" d="M170 0h960v254h-675v354h575v254h-575v342h675v254h-960v-1458z" />
<glyph unicode="F" horiz-adv-x="1208" d="M170 0h285v592h575v254h-575v358h675v254h-960v-1458z" />
<glyph unicode="G" horiz-adv-x="1327" d="M121 729q0 -235 15 -318q28 -162 117 -252q169 -171 404 -171q255 0 412 166q76 80 107.5 183t31.5 261v213h-551v-238h269v-55q0 -117 -66 -194q-74 -82 -203 -82q-154 0 -215 126q-27 54 -31.5 155.5t-4.5 205.5q0 208 11 270q16 92 53 134q74 84 187 84 q212 0 263 -213h286q-30 199 -162 324q-148 142 -387 142q-234 0 -393 -159q-100 -100 -126 -253q-17 -94 -17 -329z" />
<glyph unicode="H" horiz-adv-x="1402" d="M170 0h285v610h493v-610h285v1458h-285v-596h-493v596h-285v-1458z" />
<glyph unicode="I" horiz-adv-x="624" d="M170 0h285v1458h-285v-1458z" />
<glyph unicode="J" horiz-adv-x="1046" d="M6 137q82 -82 169 -115.5t196.5 -33.5t203 31.5t165.5 92.5q155 134 155 367v979h-285v-966q0 -127 -62.5 -188.5t-150.5 -61.5t-128 23.5t-74 58.5z" />
<glyph unicode="K" horiz-adv-x="1361" d="M170 0h285v438l188 226l375 -664h332l-519 879l484 579h-346l-514 -635v635h-285v-1458z" />
<glyph unicode="L" horiz-adv-x="1177" d="M170 0h946v254h-661v1204h-285v-1458z" />
<glyph unicode="M" horiz-adv-x="1660" d="M170 0h285v850l280 -553h193l278 553v-850h285v1458h-281l-379 -788l-380 788h-281v-1458z" />
<glyph unicode="N" horiz-adv-x="1456" d="M170 0h285v895l577 -895h254v1458h-285v-893l-577 893h-254v-1458z" />
<glyph unicode="O" horiz-adv-x="1318" d="M121 729q0 -235 15 -318q28 -162 117 -252t185.5 -130.5t220.5 -40.5q233 0 394 159q136 136 143 406q2 82 2 176q0 237 -16 319q-30 162 -118.5 251.5t-184 130t-220.5 40.5q-236 0 -395 -159q-100 -100 -126 -253q-17 -94 -17 -329zM406 729q0 208 11 270q16 92 53 134 q74 84 189 84q150 0 217 -129q28 -52 32.5 -153.5t4.5 -205.5q0 -208 -11 -270q-16 -89 -53 -132q-75 -85 -190 -85q-114 0 -184 77q-42 48 -52 108q-17 94 -17 302z" />
<glyph unicode="P" horiz-adv-x="1286" d="M170 0h285v549h280q218 0 353 134q129 127 129 321q0 193 -129 320q-135 134 -353 134h-565v-1458zM455 805v399h266q98 0 154.5 -55t56.5 -145t-56.5 -144.5t-154.5 -54.5h-266z" />
<glyph unicode="Q" horiz-adv-x="1316" d="M121 729q0 -235 15 -318q28 -162 117 -252t185.5 -130.5t244.5 -40.5t271 80l129 -129l150 149l-125 125q86 125 89 363q1 71 1 159t-2 170t-16 153q-28 152 -116.5 241.5t-184 130t-220.5 40.5q-236 0 -395 -159q-100 -100 -126 -253q-17 -94 -17 -329zM406 729 q0 208 11 270q16 92 53 134q74 84 189 84q150 0 217 -129q28 -52 32.5 -153.5t4.5 -263t-26 -237.5l-109 109l-151 -150l127 -125q-38 -26 -92 -26h-4q-113 0 -183 77q-42 48 -52 108q-17 94 -17 302z" />
<glyph unicode="R" horiz-adv-x="1339" d="M170 0h285v582h204l285 -582h330l-326 629q114 39 186 134q80 105 80 249q0 193 -124 314q-136 132 -349 132h-571v-1458zM455 819v385h268q94 0 150.5 -53t56.5 -139t-56.5 -139.5t-150.5 -53.5h-268z" />
<glyph unicode="S" horiz-adv-x="1210" d="M39 180q106 -109 236.5 -150.5t270.5 -41.5t238.5 29.5t171.5 86.5q156 121 156 326q0 284 -226 380q-65 28 -165 42l-172 25q-135 18 -168 107q-10 26 -10 54q0 76 55 130.5t148.5 54.5t172 -17.5t148.5 -83.5l180 178q-94 92 -206.5 131t-248 39t-229.5 -32.5 t-159 -91.5q-136 -121 -136 -310q0 -361 387 -415l176 -25q88 -14 131 -54q44 -40 44 -125q0 -83 -66 -129t-193 -46q-229 0 -352 123z" />
<glyph unicode="T" horiz-adv-x="1169" d="M61 1204h381v-1204h285v1204h381v254h-1047v-254z" />
<glyph unicode="U" horiz-adv-x="1368" d="M147 500q0 -228 157 -372q153 -140 380 -140t380 140q157 144 157 372v958h-283v-948q0 -127 -68.5 -197.5t-185.5 -70.5t-184.5 70.5t-67.5 197.5v948h-285v-958z" />
<glyph unicode="V" horiz-adv-x="1189" d="M6 1458l481 -1458h213l484 1458h-297l-293 -950l-293 950h-295z" />
<glyph unicode="W" horiz-adv-x="1816" d="M12 1458l389 -1458h238l268 885l269 -885h237l391 1458h-297l-227 -919l-266 919h-213l-266 -919l-226 919h-297z" />
<glyph unicode="X" horiz-adv-x="1234" d="M10 0h326l280 508l283 -508h326l-455 748l424 710h-322l-256 -471l-254 471h-323l424 -710z" />
<glyph unicode="Y" horiz-adv-x="1171" d="M6 1458l438 -860v-598h283v598l438 860h-309l-268 -588l-273 588h-309z" />
<glyph unicode="Z" horiz-adv-x="1122" d="M82 0h958v254h-624l624 979v225h-931v-254h596l-623 -975v-229z" />
<glyph unicode="[" horiz-adv-x="774" d="M164 -152h526v240h-260v1282h260v240h-526v-1762z" />
<glyph unicode="\" horiz-adv-x="825" d="M0 1583l575 -1735h250l-575 1735h-250z" />
<glyph unicode="]" horiz-adv-x="774" d="M86 86v-238h526v1762h-526v-238h260v-1286h-260z" />
<glyph unicode="^" horiz-adv-x="1232" d="M129 797h279l208 385l209 -385h279l-365 676h-245z" />
<glyph unicode="_" horiz-adv-x="1232" d="M0 -186v-179h1233v179h-1233z" />
<glyph unicode="`" horiz-adv-x="1024" d="M213 1585l233 -348h179l-131 348h-281z" />
<glyph unicode="a" horiz-adv-x="1093" d="M74 324q0 -148 88 -240q94 -94 272 -94q92 0 150.5 24.5t111.5 77.5v-92h260v702q0 377 -454 377q-133 0 -220 -30.5t-165 -116.5l170 -166q70 88 190.5 88t166.5 -40t46 -128v-53h-252q-177 0 -274 -91q-90 -84 -90 -218zM330 330.5q0 56.5 39 88.5t110 32h211v-58 q0 -98 -37 -134t-75.5 -44t-105.5 -8t-104.5 33.5t-37.5 90z" />
<glyph unicode="b" horiz-adv-x="1146" d="M150 0h258v100q55 -61 117.5 -86.5t144.5 -25.5q168 0 264 96q99 99 106 328q2 64 2 123q0 160 -12 232q-24 140 -96 216q-96 96 -260 96q-82 0 -143.5 -23.5t-114.5 -82.5v485h-266v-1458zM416 535q0 149 24.5 203.5t60.5 78t95 23.5q154 0 174 -184q6 -55 6 -121 q0 -152 -24.5 -206.5t-60.5 -78t-95 -23.5q-154 0 -174 185q-6 57 -6 123z" />
<glyph unicode="c" horiz-adv-x="983" d="M96 535q0 -291 159 -435q123 -112 318 -112q212 0 353 145l-181 178q-41 -45 -79.5 -64.5t-92.5 -19.5q-94 0 -152 72t-59 236q0 160 58.5 232.5t154 72.5t170.5 -84l181 180q-139 143 -353 143q-314 0 -432 -277q-45 -106 -45 -267z" />
<glyph unicode="d" horiz-adv-x="1148" d="M104 535q0 -244 46.5 -359t177.5 -162q69 -26 151 -26t143.5 25.5t116.5 86.5v-100h260v1458h-266v-485q-95 106 -260 106q-164 0 -260 -96q-97 -97 -107 -327q-2 -62 -2 -121zM371 535q0 149 24.5 203.5t60.5 78t95 23.5q156 0 176 -184q6 -55 6 -121 q0 -154 -25.5 -207.5t-61.5 -77t-95 -23.5q-154 0 -174 185q-6 57 -6 123z" />
<glyph unicode="e" horiz-adv-x="1122" d="M96 535q0 -296 152 -435q123 -112 342 -112q196 0 323 96q41 31 82 72l-161 157q-51 -51 -102.5 -75.5t-152 -24.5t-161 66.5t-60.5 171.5h668v118q0 228 -120 365q-129 145 -345 145q-212 0 -335 -141q-130 -147 -130 -403zM358 633q4 63 26 113q50 112 177 112 t178 -110q21 -52 25 -115h-406z" />
<glyph unicode="f" horiz-adv-x="700" d="M72 834h110v-834h267v834h196v202h-196v117q0 96 92 96h104v226h-151q-151 0 -237 -97q-75 -85 -75 -209v-133h-110v-202z" />
<glyph unicode="g" horiz-adv-x="1136" d="M104 563q0 -243 50 -342q54 -108 170 -151q65 -25 143 -25q159 0 254 107v-109q0 -147 -115 -201q-41 -20 -100 -20q-123 0 -209 82l-166 -168q84 -80 174 -109.5t204.5 -29.5t202 32.5t148.5 92.5q127 122 127 317v1028h-258v-100q-55 61 -114.5 86.5t-141.5 25.5 q-231 0 -319 -176q-39 -77 -44.5 -173.5t-5.5 -166.5zM371 563q0 132 22.5 181t57 72.5t94.5 23.5q154 0 171 -174q5 -50 5 -103q0 -132 -23.5 -181.5t-58.5 -73t-94 -23.5q-151 0 -169 175q-5 50 -5 103z" />
<glyph unicode="h" horiz-adv-x="1165" d="M150 0h266v651q0 140 110 179q31 10 62 10q115 0 158 -100q16 -35 16 -89v-651h266v690q0 176 -90 280q-94 109 -255 109t-267 -110v489h-266v-1458z" />
<glyph unicode="i" horiz-adv-x="563" d="M145 1249h273v217h-273v-217zM150 0h266v1067h-266v-1067z" />
<glyph unicode="j" horiz-adv-x="563" d="M-47 -174v-225h151q154 0 239 96q73 83 73 209v1161h-266v-1145q0 -96 -95 -96h-102zM145 1249h273v217h-273v-217z" />
<glyph unicode="k" horiz-adv-x="1144" d="M150 0h266v317l112 127l263 -444h329l-409 637l381 430h-322l-354 -436v827h-266v-1458z" />
<glyph unicode="l" horiz-adv-x="665" d="M139 305q0 -126 73 -209q85 -96 239 -96h151v225h-102q-51 0 -72.5 24.5t-21.5 72.5v1136h-267v-1153z" />
<glyph unicode="m" horiz-adv-x="1794" d="M150 0h266v645q0 100 58 151q50 44 120 44q117 0 160 -103q16 -37 16 -92v-645h266v651q0 140 116 179q32 10 62 10q118 0 162 -103q15 -37 15 -92v-645h266v682q0 188 -117 303q-94 94 -262 94q-100 0 -176 -31.5t-144 -103.5q-98 135 -268 135t-280 -110v98h-260v-1067 z" />
<glyph unicode="n" horiz-adv-x="1173" d="M150 0h266v645q0 100 58 151q50 44 120 44q117 0 160 -103q16 -37 16 -92v-645h266v682q0 88 -21.5 163t-76.5 130q-104 104 -263 104t-265 -110v98h-260v-1067z" />
<glyph unicode="o" d="M104 535q0 -145 25 -242.5t85 -162.5q133 -142 341 -142q211 0 332 131q72 76 96.5 173.5t24.5 242.5t-25 241t-85 160q-133 143 -343 143q-209 0 -330 -131q-72 -76 -96.5 -172t-24.5 -241zM371 535q0 84 10 150.5t54 110.5t121 44t121 -44t54 -110.5t10 -150.5 t-10 -152t-54 -112t-121 -44t-121 44t-54 112t-10 152z" />
<glyph unicode="p" horiz-adv-x="1146" d="M150 -391h266v485q53 -59 114.5 -82.5t141.5 -23.5q166 0 262 96q99 99 106 328q2 64 2 123q0 160 -12 232q-24 140 -96 216q-96 96 -260 96q-86 0 -148.5 -25.5t-117.5 -86.5v100h-258v-1458zM416 535q0 149 24.5 203.5t60.5 78t95 23.5q154 0 174 -184q6 -55 6 -121 q0 -152 -24.5 -206.5t-60.5 -78t-95 -23.5q-154 0 -174 185q-6 57 -6 123z" />
<glyph unicode="q" horiz-adv-x="1148" d="M104 535q0 -244 46 -359q47 -114 176 -162q69 -26 147 -26q165 0 260 106v-485h266v1458h-260v-100q-55 61 -116.5 86.5t-143.5 25.5q-170 0 -266 -96q-97 -97 -107 -327q-2 -62 -2 -121zM371 535q0 149 24.5 203.5t60.5 78t95 23.5q156 0 176 -184q6 -55 6 -121 q0 -154 -25.5 -207.5t-61.5 -77t-95 -23.5q-154 0 -174 185q-6 57 -6 123z" />
<glyph unicode="r" horiz-adv-x="931" d="M150 0h266v643q0 96 55 149q48 48 107 48t89.5 -16.5t61.5 -47.5l201 203q-100 100 -252 100q-86 0 -157.5 -33.5t-110.5 -80.5v102h-260v-1067z" />
<glyph unicode="s" horiz-adv-x="1026" d="M45 141q131 -131 331 -148q60 -5 139 -5t162 21.5t145 64.5q130 91 130 262q0 135 -78.5 216t-238.5 97l-168 17q-111 6 -111 92q0 41 36 71.5t116 30.5q165 0 248 -72l164 166q-78 72 -180.5 98.5t-206 26.5t-178 -22.5t-131.5 -65.5q-124 -95 -124 -247t83 -220.5 t229 -83.5l168 -16q112 -11 112 -98q0 -55 -60 -86q-50 -25 -128 -25q-183 0 -285 100z" />
<glyph unicode="t" horiz-adv-x="720" d="M61 834h113v-529q0 -126 73 -209q85 -96 236 -96h146v225h-97q-92 0 -92 97v512h189v202h-189v316h-266v-316h-113v-202z" />
<glyph unicode="u" horiz-adv-x="1173" d="M137 385q0 -88 21.5 -163t77.5 -130q104 -104 263 -104t265 110v-98h260v1067h-266v-645q0 -100 -58 -152q-50 -43 -120 -43q-118 0 -162 103q-15 37 -15 92v645h-266v-682z" />
<glyph unicode="v" horiz-adv-x="1009" d="M8 1067l393 -1067h209l391 1067h-280l-215 -659l-217 659h-281z" />
<glyph unicode="w" horiz-adv-x="1554" d="M8 1067l328 -1067h219l223 670l223 -670h220l325 1067h-280l-172 -659l-220 659h-194l-217 -659l-172 659h-283z" />
<glyph unicode="x" horiz-adv-x="1079" d="M25 0h319l195 319l196 -319h320l-369 545l354 522h-319l-182 -305l-181 305h-319l354 -522z" />
<glyph unicode="y" horiz-adv-x="1011" d="M8 1067l365 -991l-45 -131q-20 -59 -48 -78t-85 -19h-62v-239h105q147 0 229 82q45 45 80 137l457 1239h-281l-213 -659l-221 659h-281z" />
<glyph unicode="z" horiz-adv-x="978" d="M76 0h813v240h-479l479 624v203h-787v-240h447l-473 -624v-203z" />
<glyph unicode="{" horiz-adv-x="935" d="M88 610h94q142 0 142 -161v-297q0 -141 86 -228q76 -76 229 -76h209v240h-109q-89 0 -110 24q-39 41 -39 136v276q0 135 -96 184q-25 13 -45 21q61 24 86 51q55 57 55 154v276q0 96 33 131q29 29 116 29h109v240h-209q-155 0 -235 -81t-80 -222v-297q0 -88 -35 -123 q-39 -39 -107 -39h-94v-238z" />
<glyph unicode="|" horiz-adv-x="716" d="M225 -152h267v1762h-267v-1762z" />
<glyph unicode="}" horiz-adv-x="935" d="M88 88v-240h209q153 0 234 81t81 223v297q0 88 35 122q39 39 107 39h94v238h-94q-142 0 -142 162v297q0 141 -86 227q-76 76 -229 76h-209v-240h109q89 0 110 -24q39 -41 39 -136v-276q0 -135 96 -184q25 -13 45 -21q-61 -24 -86 -51q-55 -57 -55 -154v-276 q0 -96 -33 -131q-29 -29 -116 -29h-109z" />
<glyph unicode="~" horiz-adv-x="1241" d="M76 600l168 -168q57 57 96 71.5t82 14.5q70 0 151 -42t136 -59.5t110 -17.5t96 9.5t81 31.5q72 38 169 135l-170 168q-57 -57 -97 -71.5t-83 -14.5q-66 0 -148 42.5t-137 59.5t-110 17t-95 -9t-80 -31q-70 -37 -169 -136z" />
<glyph unicode="&#xa1;" horiz-adv-x="710" d="M154 -391h329l-65 1001h-199zM178 795h281v272h-281v-272z" />
<glyph unicode="&#xa2;" horiz-adv-x="1021" d="M96 750q0 -228 109 -370q100 -131 270 -165v-215h207v215q159 30 279 154l-177 172q-63 -68 -131 -84v585q70 -17 131 -84l177 172q-120 124 -279 154v174h-207v-174q-170 -34 -270 -164q-109 -143 -109 -370zM362 750q0 154 64 235q35 41 78 53v-577q-88 23 -126 147 q-16 56 -16 142z" />
<glyph unicode="&#xa3;" horiz-adv-x="1185" d="M82 608h125v-608h887v254h-605v354h232v205h-232v154q0 127 63.5 188.5t152 61.5t128 -24t74.5 -58l187 186q-82 82 -168 115.5t-196.5 33.5t-203 -31.5t-164.5 -92.5q-155 -134 -155 -367v-166h-125v-205z" />
<glyph unicode="&#xa4;" horiz-adv-x="1370" d="M119 197l176 -177l151 150q113 -66 238 -66t240 66l151 -150l174 177l-149 149q65 111 65 240q0 124 -65 239l149 150l-174 176l-151 -150q-113 66 -240 66q-123 0 -238 -66l-151 150l-176 -176l151 -150q-67 -115 -67 -239q0 -122 67 -240zM444 586q0 101 70 170 q71 69 170 69t170 -69q72 -71 72 -170q0 -98 -72 -170q-70 -70 -170 -70t-170 70t-70 170z" />
<glyph unicode="&#xa5;" horiz-adv-x="1169" d="M6 1458l281 -553h-154v-205h258l53 -102v-104h-311v-205h311v-289h283v289h309v205h-309v104l53 102h256v205h-151l278 553h-307l-270 -590l-271 590h-309z" />
<glyph unicode="&#xa6;" horiz-adv-x="722" d="M225 -152h267v717h-267v-717zM225 893h267v717h-267v-717z" />
<glyph unicode="&#xa7;" horiz-adv-x="1087" d="M125 553.5q0 -92.5 19.5 -153t56.5 -106.5q69 -86 223 -136l127 -43q143 -49 143 -152q0 -59 -39 -95t-109.5 -36t-109.5 36t-43 93h-256q4 -181 131 -279q112 -85 277 -85q162 0 279 93q126 101 126 281q0 119 -49 184.5t-117 100.5q67 37 120 113q65 91 65 192 q0 162 -76 250t-223 135l-127 41q-137 45 -137 135q0 53 35.5 87t107.5 34q136 0 143 -125h250q0 155 -97 250q-104 102 -296 102q-189 0 -297 -108q-96 -96 -96 -246q0 -113 45 -173t110 -95q-69 -36 -123 -113q-63 -89 -63 -181.5zM381 550q0 130 97 170q30 13 69 13 q67 0 115 -43q51 -51 51 -122q0 -142 -98 -184q-29 -13 -68 -13q-105 0 -151 93q-15 32 -15 86z" />
<glyph unicode="&#xa8;" horiz-adv-x="1024" d="M172 1241h227v256h-227v-256zM625 1241h227v256h-227v-256z" />
<glyph unicode="&#xa9;" horiz-adv-x="1728" d="M123 729q0 -154 58.5 -289t158.5 -235.5t235.5 -158.5t288.5 -58q154 0 289 58t235.5 158.5t159 235.5t58.5 289t-58.5 289t-159 235.5t-235.5 158.5t-289 58t-289 -58t-235 -158.5t-158.5 -235.5t-58.5 -289zM299 729q0 245 164 411q163 165 401 165q240 0 402 -165 q161 -165 161 -411q0 -247 -161 -411q-163 -164 -402 -164q-238 0 -401 164q-164 166 -164 411zM512 729q0 -189 106 -299q100 -102 261 -102q152 0 270 106l-115 115q-41 -35 -74.5 -50.5t-80.5 -15.5q-98 0 -145.5 66.5t-47.5 179.5t47 179.5t146 66.5q47 0 80.5 -15.5 t74.5 -50.5l115 115q-59 51 -121.5 80t-144.5 29t-148.5 -27t-116.5 -77q-106 -108 -106 -300z" />
<glyph unicode="&#xaa;" horiz-adv-x="929" d="M98 860q0 -113 72 -184q74 -78 215 -78q74 0 119 19.5t88 62.5v-74h211v561q0 301 -363 301q-106 0 -175.5 -24.5t-133.5 -93.5l137 -133q35 39 69 54t106.5 15t108.5 -31.5t36 -101.5v-41h-199q-142 0 -220 -72q-71 -67 -71 -180zM307 870q0 43 29 70t86 27h166v-47 q0 -76 -29 -103t-59.5 -34t-82.5 -7t-81 25.5t-29 68.5z" />
<glyph unicode="&#xab;" horiz-adv-x="1286" d="M70 563l510 -508v318l-193 190l193 191v317zM639 563l512 -508v318l-197 190l197 191v317z" />
<glyph unicode="&#xac;" d="M94 489h676v-296h248v544h-924v-248z" />
<glyph unicode="&#xad;" d="M102 461h908v248h-908v-248z" />
<glyph unicode="&#xae;" horiz-adv-x="1728" d="M123 729q0 -154 58.5 -289t158.5 -235.5t235.5 -158.5t288.5 -58q154 0 289 58t235.5 158.5t159 235.5t58.5 289t-58.5 289t-159 235.5t-235.5 158.5t-289 58t-289 -58t-235 -158.5t-158.5 -235.5t-58.5 -289zM299 729q0 248 163 411q165 165 402 165q239 0 402 -165 q164 -165 164 -411q0 -247 -164 -411t-402 -164q-236 0 -402 164q-163 162 -163 411zM594 336h176v305h84l143 -305h201l-166 332q57 23 101.5 75t44.5 117.5t-18.5 110.5t-52.5 79q-76 74 -192 74h-321v-788zM770 774v205h123q49 0 78.5 -30.5t29.5 -71.5t-29.5 -72 t-78.5 -31h-123z" />
<glyph unicode="&#xaf;" horiz-adv-x="1024" d="M188 1290h648v178h-648v-178z" />
<glyph unicode="&#xb0;" horiz-adv-x="978" d="M113 1110q0 -156 110 -266q111 -111 266 -111q156 0 267 111q110 110 110 266q0 157 -110 268q-109 111 -267 111q-157 0 -266 -111q-110 -111 -110 -268zM328 1110q0 70 46 117t113 47q68 0 116 -47t48 -117t-47 -117t-115 -47t-114.5 47t-46.5 117z" />
<glyph unicode="&#xb1;" d="M102 0h908v250h-908v-250zM102 698h330v-329h250v329h328v248h-328v330h-250v-330h-330v-248z" />
<glyph unicode="&#xb2;" horiz-adv-x="733" d="M88 584h557v174h-321l215 233q51 55 78.5 100.5t27.5 112.5q0 123 -79 192.5t-199 69.5q-122 0 -198 -68q-81 -72 -81 -196h193q0 53 27.5 71.5t63.5 18.5t58.5 -23.5t22.5 -58.5t-10.5 -55t-34.5 -47l-320 -350v-174z" />
<glyph unicode="&#xb3;" horiz-adv-x="753" d="M88 846q0 -135 90 -207q80 -64 199 -64q194 0 265 150q24 51 24 119q0 129 -103 192q92 60 92 172q0 113 -79 186q-79 72 -199 72q-122 0 -198 -68q-81 -72 -81 -192h193q0 41 25.5 63.5t60.5 22.5t60.5 -22.5t25.5 -61.5t-21.5 -66.5t-68.5 -27.5h-27v-166h27 q47 0 73.5 -27.5t26.5 -73.5t-26.5 -72.5t-68.5 -26.5t-69.5 24.5t-27.5 73.5h-193z" />
<glyph unicode="&#xb4;" horiz-adv-x="1024" d="M399 1237h179l233 348h-281z" />
<glyph unicode="&#xb5;" horiz-adv-x="1179" d="M143 -391h267v407q39 -29 94 -28q160 0 266 110v-98h260v1067h-266v-645q0 -100 -58 -152q-50 -43 -120 -43t-120 43q-56 49 -56 152v645h-267v-1458z" />
<glyph unicode="&#xb6;" horiz-adv-x="1368" d="M72 1042q0 -171 118 -290q118 -121 271 -121v-1022h266v1595h205v-1595h266v1849h-653q-216 0 -343 -108q-130 -108 -130 -308z" />
<glyph unicode="&#xb7;" horiz-adv-x="583" d="M139 434h305v303h-305v-303z" />
<glyph unicode="&#xb8;" horiz-adv-x="1024" d="M328 -422h247l91 299h-197z" />
<glyph unicode="&#xb9;" horiz-adv-x="598" d="M78 1081l184 160v-657h195v874h-195l-184 -160v-217z" />
<glyph unicode="&#xba;" horiz-adv-x="946" d="M113 1032q0 -117 19.5 -192.5t69.5 -127.5q111 -114 271 -114q155 0 262 104q59 61 79 137t20 193t-19.5 194t-70.5 128q-112 114 -271 114q-158 0 -262 -104q-59 -61 -78.5 -138t-19.5 -194zM328 1032q0 66 7 120t42 89t96 35t96 -35t42 -89t7 -120t-7 -119t-42 -88 t-96 -34q-61 0 -96 34.5t-42 88t-7 118.5z" />
<glyph unicode="&#xbb;" horiz-adv-x="1286" d="M137 55l510 508l-510 508v-317l195 -191l-195 -190v-318zM707 55l512 508l-512 508v-317l192 -191l-192 -190v-318z" />
<glyph unicode="&#xbc;" horiz-adv-x="1712" d="M78 1081l184 160v-657h195v874h-195l-184 -160v-217zM381 0h209l690 1458h-209zM1018 117h360v-117h185v117h67v182h-67v127h-185v-127h-151l295 575h-211l-293 -575v-182z" />
<glyph unicode="&#xbd;" horiz-adv-x="1765" d="M78 1081l184 160v-657h195v874h-195l-184 -160v-217zM373 0h207l690 1458h-207zM1120 0h557v174h-321l215 234q51 55 78.5 100t27.5 113q0 123 -78.5 192.5t-199.5 69.5t-198 -69q-81 -72 -81 -196h195q0 53 26.5 72t62.5 19t59.5 -23.5t23.5 -58.5t-11.5 -55.5 t-35.5 -47.5l-320 -350v-174z" />
<glyph unicode="&#xbe;" horiz-adv-x="1771" d="M88 846q0 -135 90 -207q80 -64 199 -64q194 0 265 150q24 51 24 119q0 129 -103 192q92 60 92 172q0 113 -79 186q-79 72 -199 72q-122 0 -198 -68q-81 -72 -81 -192h193q0 41 25.5 63.5t60.5 22.5t60.5 -22.5t25.5 -61.5t-21.5 -66.5t-68.5 -27.5h-27v-166h27 q47 0 73.5 -27.5t26.5 -73.5t-26.5 -72.5t-68.5 -26.5t-69.5 24.5t-27.5 73.5h-193zM446 0h209l691 1458h-209zM1077 117h361v-117h184v117h68v182h-68v127h-184v-127h-152l295 575h-211l-293 -575v-182z" />
<glyph unicode="&#xbf;" horiz-adv-x="1071" d="M74 -4q0 -88 34.5 -164t93.5 -128q120 -107 302 -107q183 0 305 110q127 114 127 301h-266q0 -72 -42 -122t-122 -50t-123 48t-43 120q0 58 59 137l152 195q41 53 59.5 100t18.5 113v61h-267v-41q0 -59 -36 -104l-152 -203q-43 -57 -71.5 -117.5t-28.5 -148.5zM354 795 h283v272h-283v-272z" />
<glyph unicode="&#xc0;" horiz-adv-x="1306" d="M10 0h297l88 258h518l86 -258h297l-532 1458h-223zM350 1947l233 -348h179l-131 348h-281zM475 498l184 530l179 -530h-363z" />
<glyph unicode="&#xc1;" horiz-adv-x="1306" d="M10 0h297l88 258h518l86 -258h297l-532 1458h-223zM475 498l184 530l179 -530h-363zM536 1599h179l233 348h-281z" />
<glyph unicode="&#xc2;" horiz-adv-x="1306" d="M10 0h297l88 258h518l86 -258h297l-532 1458h-223zM272 1599h207l170 186l170 -186h207l-271 346h-212zM475 498l184 530l179 -530h-363z" />
<glyph unicode="&#xc3;" horiz-adv-x="1306" d="M10 0h297l88 258h518l86 -258h297l-532 1458h-223zM278 1763l115 -117q41 41 67.5 50t55.5 9q48 0 102 -30.5t88.5 -41.5t86.5 -11q105 0 225 120l-119 117q-41 -41 -67.5 -50t-55.5 -9q-51 0 -102.5 32t-85 42t-86.5 10t-104.5 -27t-119.5 -94zM475 498l184 530 l179 -530h-363z" />
<glyph unicode="&#xc4;" horiz-adv-x="1306" d="M10 0h297l88 258h518l86 -258h297l-532 1458h-223zM309 1603h227v256h-227v-256zM475 498l184 530l179 -530h-363zM762 1603h227v256h-227v-256z" />
<glyph unicode="&#xc5;" horiz-adv-x="1306" d="M10 0h297l88 258h518l86 -258h297l-532 1458h-223zM381 1810q0 -109 78 -189q78 -79 190 -79t190 79q78 80 78 189t-78 191q-75 78 -190 78q-112 0 -190 -79q-78 -80 -78 -190zM475 498l184 530l179 -530h-363zM530 1810q0 49 35 84t84 35t84 -35t35 -84t-35 -85t-84 -36 t-84 36t-35 85z" />
<glyph unicode="&#xc6;" horiz-adv-x="2004" d="M6 0h305l166 319h461v-319h958v254h-675v352h577v254h-577v344h675v254h-1128zM600 559l338 645v-645h-338z" />
<glyph unicode="&#xc7;" horiz-adv-x="1269" d="M121 729q0 -235 15 -318q28 -162 117 -252q169 -171 404 -171q324 0 471 260q48 86 66 201h-289q-23 -88 -80 -147.5t-166 -59.5q-150 0 -217 126q-27 52 -31.5 154.5t-4.5 206.5q0 210 11 272q16 89 53 132q74 84 186 84t169.5 -59.5t79.5 -147.5h289q-34 219 -186 344 q-139 116 -351 116q-234 0 -393 -159q-100 -100 -126 -253q-17 -94 -17 -329zM439 -422h247l91 299h-197z" />
<glyph unicode="&#xc8;" horiz-adv-x="1239" d="M170 0h960v254h-675v354h575v254h-575v342h675v254h-960v-1458zM336 1947l233 -348h179l-131 348h-281z" />
<glyph unicode="&#xc9;" horiz-adv-x="1239" d="M170 0h960v254h-675v354h575v254h-575v342h675v254h-960v-1458zM520 1599h179l233 348h-281z" />
<glyph unicode="&#xca;" horiz-adv-x="1239" d="M170 0h960v254h-675v354h575v254h-575v342h675v254h-960v-1458zM258 1599h207l170 186l170 -186h207l-271 346h-212z" />
<glyph unicode="&#xcb;" horiz-adv-x="1239" d="M170 0h960v254h-675v354h575v254h-575v342h675v254h-960v-1458zM295 1603h227v256h-227v-256zM748 1603h227v256h-227v-256z" />
<glyph unicode="&#xcc;" horiz-adv-x="624" d="M170 0h285v1458h-285v-1458zM172 1947l233 -348h179l-131 348h-281z" />
<glyph unicode="&#xcd;" horiz-adv-x="624" d="M170 0h285v1458h-285v-1458zM172 1599h179l233 348h-281z" />
<glyph unicode="&#xce;" horiz-adv-x="624" d="M170 0h285v1458h-285v-1458zM170 1599h207l170 186l170 -186h207l-271 346h-212z" />
<glyph unicode="&#xcf;" horiz-adv-x="624" d="M170 0h285v1458h-285v-1458zM172 1603h227v256h-227v-256zM625 1603h227v256h-227v-256z" />
<glyph unicode="&#xd0;" horiz-adv-x="1396" d="M76 629h141v-629h522q255 0 408 170q91 99 115 236q14 76 14 248.5t-1 249.5t-13 142q-23 133 -107 230q-159 182 -412 182h-526v-612h-141v-217zM502 252v377h237v217h-237v360h215q149 0 223 -106q34 -49 40.5 -102.5t8.5 -115t2 -158.5t-2 -157.5t-6 -99.5 q-5 -52 -39 -107q-74 -108 -227 -108h-215z" />
<glyph unicode="&#xd1;" horiz-adv-x="1456" d="M170 0h285v895l577 -895h254v1458h-285v-893l-577 893h-254v-1458zM358 1763l115 -117q41 41 67.5 50t55.5 9q48 0 102 -30.5t88.5 -41.5t86.5 -11q105 0 225 120l-119 117q-41 -41 -67.5 -50t-55.5 -9q-51 0 -102.5 32t-85 42t-86.5 10t-104.5 -27t-119.5 -94z" />
<glyph unicode="&#xd2;" horiz-adv-x="1318" d="M121 729q0 -235 15 -318q28 -162 117 -252t185.5 -130.5t220.5 -40.5q233 0 394 159q136 136 143 406q2 82 2 176q0 237 -16 319q-30 162 -118.5 251.5t-184 130t-220.5 40.5q-236 0 -395 -159q-100 -100 -126 -253q-17 -94 -17 -329zM360 1947l233 -348h179l-131 348 h-281zM406 729q0 208 11 270q16 92 53 134q74 84 189 84q150 0 217 -129q28 -52 32.5 -153.5t4.5 -205.5q0 -208 -11 -270q-16 -89 -53 -132q-75 -85 -190 -85q-114 0 -184 77q-42 48 -52 108q-17 94 -17 302z" />
<glyph unicode="&#xd3;" horiz-adv-x="1318" d="M121 729q0 -235 15 -318q28 -162 117 -252t185.5 -130.5t220.5 -40.5q233 0 394 159q136 136 143 406q2 82 2 176q0 237 -16 319q-30 162 -118.5 251.5t-184 130t-220.5 40.5q-236 0 -395 -159q-100 -100 -126 -253q-17 -94 -17 -329zM406 729q0 208 11 270q16 92 53 134 q74 84 189 84q150 0 217 -129q28 -52 32.5 -153.5t4.5 -205.5q0 -208 -11 -270q-16 -89 -53 -132q-75 -85 -190 -85q-114 0 -184 77q-42 48 -52 108q-17 94 -17 302zM546 1599h179l233 348h-281z" />
<glyph unicode="&#xd4;" horiz-adv-x="1318" d="M121 729q0 -235 15 -318q28 -162 117 -252t185.5 -130.5t220.5 -40.5q233 0 394 159q136 136 143 406q2 82 2 176q0 237 -16 319q-30 162 -118.5 251.5t-184 130t-220.5 40.5q-236 0 -395 -159q-100 -100 -126 -253q-17 -94 -17 -329zM282 1599h207l170 186l170 -186h207 l-271 346h-212zM406 729q0 208 11 270q16 92 53 134q74 84 189 84q150 0 217 -129q28 -52 32.5 -153.5t4.5 -205.5q0 -208 -11 -270q-16 -89 -53 -132q-75 -85 -190 -85q-114 0 -184 77q-42 48 -52 108q-17 94 -17 302z" />
<glyph unicode="&#xd5;" horiz-adv-x="1318" d="M121 729q0 -235 15 -318q28 -162 117 -252t185.5 -130.5t220.5 -40.5q233 0 394 159q136 136 143 406q2 82 2 176q0 237 -16 319q-30 162 -118.5 251.5t-184 130t-220.5 40.5q-236 0 -395 -159q-100 -100 -126 -253q-17 -94 -17 -329zM288 1763l115 -117q41 41 67.5 50 t55.5 9q48 0 102 -30.5t88.5 -41.5t86.5 -11q105 0 225 120l-119 117q-41 -41 -67.5 -50t-55.5 -9q-51 0 -102.5 32t-85 42t-86.5 10t-104.5 -27t-119.5 -94zM406 729q0 208 11 270q16 92 53 134q74 84 189 84q150 0 217 -129q28 -52 32.5 -153.5t4.5 -205.5 q0 -208 -11 -270q-16 -89 -53 -132q-75 -85 -190 -85q-114 0 -184 77q-42 48 -52 108q-17 94 -17 302z" />
<glyph unicode="&#xd6;" horiz-adv-x="1318" d="M121 729q0 -235 15 -318q28 -162 117 -252t185.5 -130.5t220.5 -40.5q233 0 394 159q136 136 143 406q2 82 2 176q0 237 -16 319q-30 162 -118.5 251.5t-184 130t-220.5 40.5q-236 0 -395 -159q-100 -100 -126 -253q-17 -94 -17 -329zM319 1603h227v256h-227v-256z M406 729q0 208 11 270q16 92 53 134q74 84 189 84q150 0 217 -129q28 -52 32.5 -153.5t4.5 -205.5q0 -208 -11 -270q-16 -89 -53 -132q-75 -85 -190 -85q-114 0 -184 77q-42 48 -52 108q-17 94 -17 302zM772 1603h227v256h-227v-256z" />
<glyph unicode="&#xd7;" d="M100 297l168 -168l287 289l289 -289l168 168l-289 289l289 288l-168 168l-289 -288l-287 288l-168 -168l289 -288z" />
<glyph unicode="&#xd8;" horiz-adv-x="1335" d="M121 729q0 -235 15 -318q28 -164 138 -274l-108 -227h203l59 123q98 -45 227 -45q237 0 398 159q136 136 143 406q2 82 2 176q0 237 -16 319q-33 175 -140 273l109 227h-201l-59 -123q-98 45 -227 45q-241 0 -400 -159q-100 -100 -126 -253q-17 -94 -17 -329zM406 667 q0 166 3 235t11 114q23 129 133 180q47 21 114.5 21t120.5 -33l-364 -764q-18 81 -18 247zM528 276l365 762q20 -90 20 -251.5t-3 -230.5t-11 -114q-23 -128 -134 -179q-46 -21 -113 -21t-124 34z" />
<glyph unicode="&#xd9;" horiz-adv-x="1368" d="M147 500q0 -228 157 -372q153 -140 380 -140t380 140q157 144 157 372v958h-283v-948q0 -127 -68.5 -197.5t-185.5 -70.5t-184.5 70.5t-67.5 197.5v948h-285v-958zM385 1947l233 -348h179l-131 348h-281z" />
<glyph unicode="&#xda;" horiz-adv-x="1368" d="M147 500q0 -228 157 -372q153 -140 380 -140t380 140q157 144 157 372v958h-283v-948q0 -127 -68.5 -197.5t-185.5 -70.5t-184.5 70.5t-67.5 197.5v948h-285v-958zM571 1599h179l233 348h-281z" />
<glyph unicode="&#xdb;" horiz-adv-x="1368" d="M147 500q0 -228 157 -372q153 -140 380 -140t380 140q157 144 157 372v958h-283v-948q0 -127 -68.5 -197.5t-185.5 -70.5t-184.5 70.5t-67.5 197.5v948h-285v-958zM307 1599h207l170 186l170 -186h207l-271 346h-212z" />
<glyph unicode="&#xdc;" horiz-adv-x="1368" d="M147 500q0 -228 157 -372q153 -140 380 -140t380 140q157 144 157 372v958h-283v-948q0 -127 -68.5 -197.5t-185.5 -70.5t-184.5 70.5t-67.5 197.5v948h-285v-958zM344 1603h227v256h-227v-256zM797 1603h227v256h-227v-256z" />
<glyph unicode="&#xdd;" horiz-adv-x="1171" d="M6 1458l438 -860v-598h283v598l438 860h-309l-268 -588l-273 588h-309zM471 1599h179l233 348h-281z" />
<glyph unicode="&#xde;" horiz-adv-x="1296" d="M170 0h285v283h280q220 0 353 133q129 129 129 321q0 193 -129 319q-135 134 -353 134h-280v268h-285v-1458zM455 537v399h266q98 0 154.5 -54.5t56.5 -144.5t-56.5 -145t-154.5 -55h-266z" />
<glyph unicode="&#xdf;" horiz-adv-x="1175" d="M150 0h266v1047q0 92 41 142t143 50t145.5 -39t43 -100.5t-37 -90t-85.5 -28.5h-58v-209h58q59 0 91 -32t31 -93v-295q0 -66 -34 -96q-35 -31 -92 -31h-54v-225h107q342 0 342 330v327q0 96 -35 145.5t-92 78.5q125 77 125 231q0 178 -125 271q-118 87 -320 87 q-327 0 -426 -220q-34 -76 -34 -183v-1067z" />
<glyph unicode="&#xe0;" horiz-adv-x="1093" d="M74 324q0 -148 88 -240q94 -94 272 -94q92 0 150.5 24.5t111.5 77.5v-92h260v702q0 377 -454 377q-133 0 -220 -30.5t-165 -116.5l170 -166q70 88 190.5 88t166.5 -40t46 -128v-53h-252q-177 0 -274 -91q-90 -84 -90 -218zM236 1585l233 -348h179l-131 348h-281z M330 330.5q0 56.5 39 88.5t110 32h211v-58q0 -98 -37 -134t-75.5 -44t-105.5 -8t-104.5 33.5t-37.5 90z" />
<glyph unicode="&#xe1;" horiz-adv-x="1093" d="M74 324q0 -148 88 -240q94 -94 272 -94q92 0 150.5 24.5t111.5 77.5v-92h260v702q0 377 -454 377q-133 0 -220 -30.5t-165 -116.5l170 -166q70 88 190.5 88t166.5 -40t46 -128v-53h-252q-177 0 -274 -91q-90 -84 -90 -218zM330 330.5q0 56.5 39 88.5t110 32h211v-58 q0 -98 -37 -134t-75.5 -44t-105.5 -8t-104.5 33.5t-37.5 90zM422 1237h179l233 348h-281z" />
<glyph unicode="&#xe2;" horiz-adv-x="1093" d="M74 324q0 -148 88 -240q94 -94 272 -94q92 0 150.5 24.5t111.5 77.5v-92h260v702q0 377 -454 377q-133 0 -220 -30.5t-165 -116.5l170 -166q70 88 190.5 88t166.5 -40t46 -128v-53h-252q-177 0 -274 -91q-90 -84 -90 -218zM158 1237h207l170 186l170 -186h207l-271 346 h-212zM330 330.5q0 56.5 39 88.5t110 32h211v-58q0 -98 -37 -134t-75.5 -44t-105.5 -8t-104.5 33.5t-37.5 90z" />
<glyph unicode="&#xe3;" horiz-adv-x="1093" d="M74 324q0 -148 88 -240q94 -94 272 -94q92 0 150.5 24.5t111.5 77.5v-92h260v702q0 377 -454 377q-133 0 -220 -30.5t-165 -116.5l170 -166q70 88 190.5 88t166.5 -40t46 -128v-53h-252q-177 0 -274 -91q-90 -84 -90 -218zM164 1401l115 -117q41 41 67.5 50t55.5 9 q48 0 102 -30.5t88.5 -41.5t86.5 -11q105 0 225 120l-119 117q-41 -41 -67.5 -50t-55.5 -9q-51 0 -102.5 32t-85 42t-86.5 10t-104.5 -27t-119.5 -94zM330 330.5q0 56.5 39 88.5t110 32h211v-58q0 -98 -37 -134t-75.5 -44t-105.5 -8t-104.5 33.5t-37.5 90z" />
<glyph unicode="&#xe4;" horiz-adv-x="1093" d="M74 324q0 -148 88 -240q94 -94 272 -94q92 0 150.5 24.5t111.5 77.5v-92h260v702q0 377 -454 377q-133 0 -220 -30.5t-165 -116.5l170 -166q70 88 190.5 88t166.5 -40t46 -128v-53h-252q-177 0 -274 -91q-90 -84 -90 -218zM195 1241h227v256h-227v-256zM330 330.5 q0 56.5 39 88.5t110 32h211v-58q0 -98 -37 -134t-75.5 -44t-105.5 -8t-104.5 33.5t-37.5 90zM648 1241h227v256h-227v-256z" />
<glyph unicode="&#xe5;" horiz-adv-x="1093" d="M74 324q0 -148 88 -240q94 -94 272 -94q92 0 150.5 24.5t111.5 77.5v-92h260v702q0 377 -454 377q-133 0 -220 -30.5t-165 -116.5l170 -166q70 88 190.5 88t166.5 -40t46 -128v-53h-252q-177 0 -274 -91q-90 -84 -90 -218zM267 1464q0 -109 78 -189q78 -79 190 -79 t190 79q78 80 78 189t-78 191q-75 78 -190 78q-112 0 -190 -79q-78 -80 -78 -190zM330 330.5q0 56.5 39 88.5t110 32h211v-58q0 -98 -37 -134t-75.5 -44t-105.5 -8t-104.5 33.5t-37.5 90zM416 1464q0 49 35 84t84 35t84 -35t35 -84t-35 -85t-84 -36t-84 36t-35 85z" />
<glyph unicode="&#xe6;" horiz-adv-x="1716" d="M74 324q0 -148 88 -240q96 -96 272 -96q126 0 186 22q108 38 189 127q131 -149 375 -149q196 0 323 96q41 31 82 72l-162 157q-51 -51 -102 -75.5t-151.5 -24.5t-161 66.5t-60.5 171.5h668v118q0 228 -120 365q-129 145 -332.5 145t-315.5 -116q-109 117 -350 116 q-133 0 -220 -30.5t-165 -116.5l170 -166q70 88 190.5 88t166.5 -40t46 -128v-53h-252q-177 0 -274 -91q-90 -84 -90 -218zM330 330.5q0 56.5 39 88.5t110 32h211v-58q0 -98 -37 -134t-75.5 -44t-105.5 -8t-104.5 33.5t-37.5 90zM952 633q4 63 26 113q50 112 177 112 t178 -110q21 -52 25 -115h-406z" />
<glyph unicode="&#xe7;" horiz-adv-x="987" d="M96 535q0 -291 159 -435q123 -112 318 -112q212 0 353 145l-181 178q-41 -45 -79.5 -64.5t-92.5 -19.5q-94 0 -152 72t-59 236q0 160 58.5 232.5t154 72.5t170.5 -84l181 180q-139 143 -353 143q-314 0 -432 -277q-45 -106 -45 -267zM328 -422h247l91 299h-197z" />
<glyph unicode="&#xe8;" horiz-adv-x="1122" d="M96 535q0 -296 152 -435q123 -112 342 -112q196 0 323 96q41 31 82 72l-161 157q-51 -51 -102.5 -75.5t-152 -24.5t-161 66.5t-60.5 171.5h668v118q0 228 -120 365q-129 145 -345 145q-212 0 -335 -141q-130 -147 -130 -403zM268 1585l233 -348h179l-131 348h-281z M358 633q4 63 26 113q50 112 177 112t178 -110q21 -52 25 -115h-406z" />
<glyph unicode="&#xe9;" horiz-adv-x="1122" d="M96 535q0 -296 152 -435q123 -112 342 -112q196 0 323 96q41 31 82 72l-161 157q-51 -51 -102.5 -75.5t-152 -24.5t-161 66.5t-60.5 171.5h668v118q0 228 -120 365q-129 145 -345 145q-212 0 -335 -141q-130 -147 -130 -403zM358 633q4 63 26 113q50 112 177 112 t178 -110q21 -52 25 -115h-406zM454 1237h179l233 348h-281z" />
<glyph unicode="&#xea;" horiz-adv-x="1122" d="M96 535q0 -296 152 -435q123 -112 342 -112q196 0 323 96q41 31 82 72l-161 157q-51 -51 -102.5 -75.5t-152 -24.5t-161 66.5t-60.5 171.5h668v118q0 228 -120 365q-129 145 -345 145q-212 0 -335 -141q-130 -147 -130 -403zM190 1237h207l170 186l170 -186h207l-271 346 h-212zM358 633q4 63 26 113q50 112 177 112t178 -110q21 -52 25 -115h-406z" />
<glyph unicode="&#xeb;" horiz-adv-x="1122" d="M96 535q0 -296 152 -435q123 -112 342 -112q196 0 323 96q41 31 82 72l-161 157q-51 -51 -102.5 -75.5t-152 -24.5t-161 66.5t-60.5 171.5h668v118q0 228 -120 365q-129 145 -345 145q-212 0 -335 -141q-130 -147 -130 -403zM227 1241h227v256h-227v-256zM358 633 q4 63 26 113q50 112 177 112t178 -110q21 -52 25 -115h-406zM680 1241h227v256h-227v-256z" />
<glyph unicode="&#xec;" horiz-adv-x="475" d="M152 1585l233 -348h179l-131 348h-281z" />
<glyph unicode="&#xed;" horiz-adv-x="475" d="M151 1237h179l233 348h-281z" />
<glyph unicode="&#xee;" horiz-adv-x="475" d="M149 1237h207l170 186l170 -186h207l-271 346h-212z" />
<glyph unicode="&#xef;" horiz-adv-x="475" d="M152 1241h227v256h-227v-256zM605 1241h227v256h-227v-256z" />
<glyph unicode="&#xf0;" d="M115 520q0 -141 23.5 -236.5t83.5 -157.5t138 -100t195 -38q200 0 322 127q72 74 95 169t23 203.5t-6 167t-21 112.5q-23 86 -100 241l-82 157h95v187h-189l-63 123h-285l64 -123h-140v-187h234l69 -127q-76 7 -174 -19t-167 -97.5t-92 -165.5t-23 -236zM381 520 q0 78 9 141.5t51 106.5t115 43t115 -43t50 -106.5t8 -141.5t-8 -142.5t-50 -107.5t-115 -43t-115 43t-51 107.5t-9 142.5z" />
<glyph unicode="&#xf1;" horiz-adv-x="1173" d="M150 0h266v645q0 100 58 151q50 44 120 44q117 0 160 -103q16 -37 16 -92v-645h266v682q0 88 -21.5 163t-76.5 130q-104 104 -263 104t-265 -110v98h-260v-1067zM223 1401l115 -117q41 41 67.5 50t55.5 9q48 0 102 -30.5t88.5 -41.5t86.5 -11q105 0 225 120l-119 117 q-41 -41 -67.5 -50t-55.5 -9q-51 0 -102.5 32t-85 42t-86.5 10t-104.5 -27t-119.5 -94z" />
<glyph unicode="&#xf2;" d="M104 535q0 -145 25 -242.5t85 -162.5q133 -142 341 -142q211 0 332 131q72 76 96.5 173.5t24.5 242.5t-25 241t-85 160q-133 143 -343 143q-209 0 -330 -131q-72 -76 -96.5 -172t-24.5 -241zM250 1585l233 -348h179l-131 348h-281zM371 535q0 84 10 150.5t54 110.5 t121 44t121 -44t54 -110.5t10 -150.5t-10 -152t-54 -112t-121 -44t-121 44t-54 112t-10 152z" />
<glyph unicode="&#xf3;" d="M104 535q0 -145 25 -242.5t85 -162.5q133 -142 341 -142q211 0 332 131q72 76 96.5 173.5t24.5 242.5t-25 241t-85 160q-133 143 -343 143q-209 0 -330 -131q-72 -76 -96.5 -172t-24.5 -241zM371 535q0 84 10 150.5t54 110.5t121 44t121 -44t54 -110.5t10 -150.5 t-10 -152t-54 -112t-121 -44t-121 44t-54 112t-10 152zM444 1237h179l233 348h-281z" />
<glyph unicode="&#xf4;" d="M104 535q0 -145 25 -242.5t85 -162.5q133 -142 341 -142q211 0 332 131q72 76 96.5 173.5t24.5 242.5t-25 241t-85 160q-133 143 -343 143q-209 0 -330 -131q-72 -76 -96.5 -172t-24.5 -241zM180 1237h207l170 186l170 -186h207l-271 346h-212zM371 535q0 84 10 150.5 t54 110.5t121 44t121 -44t54 -110.5t10 -150.5t-10 -152t-54 -112t-121 -44t-121 44t-54 112t-10 152z" />
<glyph unicode="&#xf5;" d="M104 535q0 -145 25 -242.5t85 -162.5q133 -142 341 -142q211 0 332 131q72 76 96.5 173.5t24.5 242.5t-25 241t-85 160q-133 143 -343 143q-209 0 -330 -131q-72 -76 -96.5 -172t-24.5 -241zM186 1401l115 -117q41 41 67.5 50t55.5 9q48 0 102 -30.5t88.5 -41.5t86.5 -11 q105 0 225 120l-119 117q-41 -41 -67.5 -50t-55.5 -9q-51 0 -102.5 32t-85 42t-86.5 10t-104.5 -27t-119.5 -94zM371 535q0 84 10 150.5t54 110.5t121 44t121 -44t54 -110.5t10 -150.5t-10 -152t-54 -112t-121 -44t-121 44t-54 112t-10 152z" />
<glyph unicode="&#xf6;" d="M104 535q0 -145 25 -242.5t85 -162.5q133 -142 341 -142q211 0 332 131q72 76 96.5 173.5t24.5 242.5t-25 241t-85 160q-133 143 -343 143q-209 0 -330 -131q-72 -76 -96.5 -172t-24.5 -241zM217 1241h227v256h-227v-256zM371 535q0 84 10 150.5t54 110.5t121 44t121 -44 t54 -110.5t10 -150.5t-10 -152t-54 -112t-121 -44t-121 44t-54 112t-10 152zM670 1241h227v256h-227v-256z" />
<glyph unicode="&#xf7;" d="M94 461h924v248h-924v-248zM424 37h266v266h-266v-266zM424 866h266v267h-266v-267z" />
<glyph unicode="&#xf8;" d="M104 535q0 -145 24 -243q24 -100 99 -175l-121 -207h162l74 125q88 -47 210 -47q214 0 335 131q72 76 96.5 173.5t24.5 242.5t-25 241t-96 172l-4 2l123 207h-164l-72 -123q-90 45 -212 45q-212 0 -333 -131q-72 -76 -96.5 -172t-24.5 -241zM371 514.5q0 104.5 10 171 t54 110.5t110.5 44t109.5 -27l-270 -455q-14 52 -14 156.5zM457 254l268 455q16 -59 16 -158.5t-10 -167.5t-54 -112t-110.5 -44t-109.5 27z" />
<glyph unicode="&#xf9;" horiz-adv-x="1173" d="M137 385q0 -88 21.5 -163t77.5 -130q104 -104 263 -104t265 110v-98h260v1067h-266v-645q0 -100 -58 -152q-50 -43 -120 -43q-118 0 -162 103q-15 37 -15 92v645h-266v-682zM281 1585l233 -348h179l-131 348h-281z" />
<glyph unicode="&#xfa;" horiz-adv-x="1173" d="M137 385q0 -88 21.5 -163t77.5 -130q104 -104 263 -104t265 110v-98h260v1067h-266v-645q0 -100 -58 -152q-50 -43 -120 -43q-118 0 -162 103q-15 37 -15 92v645h-266v-682zM467 1237h179l233 348h-281z" />
<glyph unicode="&#xfb;" horiz-adv-x="1173" d="M137 385q0 -88 21.5 -163t77.5 -130q104 -104 263 -104t265 110v-98h260v1067h-266v-645q0 -100 -58 -152q-50 -43 -120 -43q-118 0 -162 103q-15 37 -15 92v645h-266v-682zM203 1237h207l170 186l170 -186h207l-271 346h-212z" />
<glyph unicode="&#xfc;" horiz-adv-x="1173" d="M137 385q0 -88 21.5 -163t77.5 -130q104 -104 263 -104t265 110v-98h260v1067h-266v-645q0 -100 -58 -152q-50 -43 -120 -43q-118 0 -162 103q-15 37 -15 92v645h-266v-682zM240 1241h227v256h-227v-256zM693 1241h227v256h-227v-256z" />
<glyph unicode="&#xfd;" horiz-adv-x="1011" d="M8 1067l365 -991l-45 -131q-20 -59 -48 -78t-85 -19h-62v-239h105q147 0 229 82q45 45 80 137l457 1239h-281l-213 -659l-221 659h-281zM389 1237h179l233 348h-281z" />
<glyph unicode="&#xfe;" horiz-adv-x="1150" d="M150 -391h266v485q53 -59 114.5 -82.5t141.5 -23.5q166 0 262 96q99 99 106 328q2 64 2 123q0 160 -12 232q-24 140 -96 216q-96 96 -260 96q-82 0 -143.5 -23.5t-114.5 -82.5v485h-266v-1849zM416 535q0 149 24.5 203.5t60.5 78t95 23.5q154 0 174 -184q6 -55 6 -121 q0 -152 -24.5 -206.5t-60.5 -78t-95 -23.5q-154 0 -174 185q-6 57 -6 123z" />
<glyph unicode="&#xff;" horiz-adv-x="1011" d="M8 1067l365 -991l-45 -131q-20 -59 -48 -78t-85 -19h-62v-239h105q147 0 229 82q45 45 80 137l457 1239h-281l-213 -659l-221 659h-281zM162 1241h227v256h-227v-256zM615 1241h227v256h-227v-256z" />
<glyph unicode="&#x152;" horiz-adv-x="1978" d="M121 729q0 -238 15 -323q31 -166 118.5 -254.5t179.5 -126t217 -37.5q164 0 262 102v-90h955v252h-672v72l2 213v73h569v250h-569v70l-2 205v71h670v252h-953v-90q-98 102 -262 102q-234 0 -387 -153q-134 -134 -141 -411q-2 -83 -2 -177zM406 729q0 208 11 270 q16 92 53 134q74 84 189 84q150 0 217 -129q28 -52 32.5 -153.5t4.5 -205.5q0 -208 -11 -270q-16 -89 -53 -132q-75 -85 -190 -85q-114 0 -184 77q-42 48 -52 108q-17 94 -17 302z" />
<glyph unicode="&#x153;" horiz-adv-x="1767" d="M104 535q0 -145 25 -242.5t85 -162.5q133 -142 342.5 -142t322.5 135q120 -135 356 -135q198 0 323 96q41 31 82 72l-163 157q-51 -51 -101.5 -75.5t-151 -24.5t-160.5 66.5t-60 171.5h667v118q0 228 -121 365q-128 145 -338.5 145t-326.5 -141q-49 61 -132 101t-200 40 q-207 0 -328 -131q-72 -76 -96.5 -172t-24.5 -241zM371 535q0 84 10 150.5t54 110.5t121 44t121 -44t54 -110.5t10 -150.5t-10 -152t-54 -112t-121 -44t-121 44t-54 112t-10 152zM1004 633q4 72 24.5 117t65.5 76.5t112 31.5q127 0 178 -110q19 -46 23 -115h-403z" />
<glyph unicode="&#x178;" horiz-adv-x="1171" d="M6 1458l438 -860v-598h283v598l438 860h-309l-268 -588l-273 588h-309zM244 1603h227v256h-227v-256zM697 1603h227v256h-227v-256z" />
<glyph unicode="&#x2c6;" horiz-adv-x="1024" d="M135 1237h207l170 186l170 -186h207l-271 346h-212z" />
<glyph unicode="&#x2dc;" horiz-adv-x="1024" d="M141 1401l115 -117q41 41 67.5 50t55.5 9q48 0 102 -30.5t88.5 -41.5t86.5 -11q105 0 225 120l-119 117q-41 -41 -67.5 -50t-55.5 -9q-51 0 -102.5 32t-85 42t-86.5 10t-104.5 -27t-119.5 -94z" />
<glyph unicode="&#x2000;" horiz-adv-x="1039" />
<glyph unicode="&#x2001;" horiz-adv-x="2079" />
<glyph unicode="&#x2002;" horiz-adv-x="1039" />
<glyph unicode="&#x2003;" horiz-adv-x="2079" />
<glyph unicode="&#x2004;" horiz-adv-x="693" />
<glyph unicode="&#x2005;" horiz-adv-x="519" />
<glyph unicode="&#x2006;" horiz-adv-x="346" />
<glyph unicode="&#x2007;" horiz-adv-x="346" />
<glyph unicode="&#x2008;" horiz-adv-x="259" />
<glyph unicode="&#x2009;" horiz-adv-x="415" />
<glyph unicode="&#x200a;" horiz-adv-x="115" />
<glyph unicode="&#x2010;" horiz-adv-x="872" d="M121 461h631v248h-631v-248z" />
<glyph unicode="&#x2011;" horiz-adv-x="872" d="M121 461h631v248h-631v-248z" />
<glyph unicode="&#x2012;" horiz-adv-x="872" d="M121 461h631v248h-631v-248z" />
<glyph unicode="&#x2013;" d="M102 461h908v248h-908v-248z" />
<glyph unicode="&#x2014;" horiz-adv-x="2103" d="M121 463h1861v256h-1861v-256z" />
<glyph unicode="&#x2018;" horiz-adv-x="559" d="M139 1206h279v467l-279 -215v-252z" />
<glyph unicode="&#x2019;" horiz-adv-x="559" d="M139 993l279 211v254h-279v-465z" />
<glyph unicode="&#x201a;" horiz-adv-x="555" d="M139 -213l279 213v254h-279v-467z" />
<glyph unicode="&#x201c;" horiz-adv-x="987" d="M139 1206h277v467l-277 -215v-252zM569 1206h279v467l-279 -215v-252z" />
<glyph unicode="&#x201d;" horiz-adv-x="987" d="M139 993l277 211v254h-277v-465zM569 993l279 211v254h-279v-465z" />
<glyph unicode="&#x201e;" horiz-adv-x="993" d="M139 -213l277 213v254h-277v-467zM569 -213l279 213v254h-279v-467z" />
<glyph unicode="&#x2022;" horiz-adv-x="1009" d="M170 684q0 -136 98 -236q97 -98 236 -98q138 0 235 98q99 101 99 236t-99 236q-97 98 -235 98q-139 0 -236 -98q-98 -100 -98 -236z" />
<glyph unicode="&#x2026;" horiz-adv-x="1732" d="M139 0h291v289h-291v-289zM721 0h289v289h-289v-289zM1305 0h288v289h-288v-289z" />
<glyph unicode="&#x202f;" horiz-adv-x="415" />
<glyph unicode="&#x2039;" horiz-adv-x="716" d="M70 563l510 -508v318l-193 190l193 191v317z" />
<glyph unicode="&#x203a;" horiz-adv-x="716" d="M137 55l510 508l-510 508v-317l195 -191l-195 -190v-318z" />
<glyph unicode="&#x205f;" horiz-adv-x="519" />
<glyph unicode="&#x2122;" horiz-adv-x="1892" d="M92 1284h225v-700h195v700h225v174h-645v-174zM872 584h195v516l164 -322h172l164 322v-516h194v874h-194l-250 -467l-250 467h-195v-874z" />
<glyph unicode="&#xe000;" horiz-adv-x="1064" d="M0 0v1065h1065v-1065h-1065z" />
</font>
</defs>
</svg>
