<?xml version="1.0" standalone="no"?>
<!DOCTYPE svg PUBLIC "-//W3C//DTD SVG 1.1//EN" "http://www.w3.org/Graphics/SVG/1.1/DTD/svg11.dtd" >
<svg xmlns="http://www.w3.org/2000/svg">
<metadata></metadata>
<defs>
<font id="DIN-BlackRegular" horiz-adv-x="1138" >
<font-face units-per-em="2048" ascent="1638" descent="-410" />
<missing-glyph horiz-adv-x="454" />
<glyph horiz-adv-x="0" />
<glyph horiz-adv-x="2048" />
<glyph horiz-adv-x="0" />
<glyph horiz-adv-x="0" />
<glyph unicode="&#xd;" horiz-adv-x="454" />
<glyph unicode=" "  horiz-adv-x="454" />
<glyph unicode="&#x09;" horiz-adv-x="454" />
<glyph unicode="&#xa0;" horiz-adv-x="454" />
<glyph unicode="!" horiz-adv-x="749" d="M205 1458h422l-90 -973h-242zM244 0v330h344v-330h-344z" />
<glyph unicode="&#x22;" horiz-adv-x="999" d="M117 979v479h301v-479h-301zM582 979v479h301v-479h-301z" />
<glyph unicode="#" horiz-adv-x="1460" d="M100 346v318h170l27 180h-119v317h170l49 314h357l-49 -314h184l49 314h356l-49 -314h119v-317h-170l-27 -180h119v-318h-170l-55 -346h-356l55 346h-185l-55 -346h-356l55 346h-119zM627 664h184l27 180h-185z" />
<glyph unicode="$" horiz-adv-x="1296" d="M10 180l230 230q51 -51 137 -77t176 -26v271l-80 10q-96 12 -170 45t-148.5 109.5t-74.5 263t114.5 309.5t317.5 149v187h258v-183q244 0 416 -172l-225 -225q-43 43 -110 63.5t-122 20.5v-256l84 -12q193 -27 268.5 -101.5t101 -153.5t25.5 -186q0 -184 -120.5 -300.5 t-317.5 -147.5v-231h-258v221q-158 0 -279.5 45t-222.5 147zM426 1032q0 -33 7 -48t23 -30q35 -36 97 -43v242q-61 -12 -94 -50t-33 -71zM729 313q127 25 127 125q0 88 -72 112q-28 9 -55 13v-250z" />
<glyph unicode="%" horiz-adv-x="1755" d="M92 991v195q0 137 89 210.5t221 73.5t220.5 -72.5t88.5 -211.5v-195q0 -137 -89.5 -210.5t-221.5 -73.5t-220 72.5t-88 211.5zM330 999q0 -79 71 -79q35 0 53.5 17t18.5 62v179q0 79 -72 79q-35 0 -53 -17t-18 -62v-179zM401 0l695 1458h258l-695 -1458h-258zM1044 272 v195q0 137 89.5 211t221.5 74t220 -73t88 -212v-195q0 -137 -89 -210.5t-221 -73.5t-220.5 72.5t-88.5 211.5zM1282 281q0 -80 72 -80q35 0 53 17.5t18 62.5v178q0 80 -71.5 80t-71.5 -80v-178z" />
<glyph unicode="&#x26;" horiz-adv-x="1454" d="M100 439q0 216 232 368q-61 68 -99 136.5t-38 164.5q0 166 110.5 264t309 98t307 -100t108.5 -266q0 -80 -34.5 -137.5t-108.5 -112.5l-103 -76l172 -198q53 61 68 211h315q0 -270 -170 -457l285 -334h-422l-92 106q-80 -59 -148.5 -88.5t-197.5 -29.5q-250 0 -372 117.5 t-122 333.5zM424 438q0 -60 50 -103.5t110.5 -43.5t90.5 12t62 41l-227 260q-49 -35 -67.5 -70.5t-18.5 -95.5zM530 1100q0 -23 15.5 -47.5t62.5 -71.5l49 35q57 41 58 86q0 86 -92.5 86t-92.5 -88z" />
<glyph unicode="'" horiz-adv-x="536" d="M117 979v479h303v-479h-303z" />
<glyph unicode="(" horiz-adv-x="733" d="M147 334v790q0 193 57 290q25 44 64 90t140 147l225 -226q-33 -33 -60.5 -62.5t-58.5 -79.5t-31 -171v-766q0 -121 31 -171q48 -78 119 -142l-225 -226q-121 121 -144.5 149t-57.5 85q-59 99 -59 293z" />
<glyph unicode=")" horiz-adv-x="733" d="M100 33q31 31 64 63q25 29 55.5 79t30.5 171v766q0 121 -31 171q-43 69 -119 142l226 226q121 -121 144.5 -148.5t57.5 -84.5q58 -101 58 -294v-790q0 -194 -57 -290q-26 -44 -64.5 -90t-138.5 -147z" />
<glyph unicode="*" horiz-adv-x="1036" d="M96 928l215 110l-215 111l115 199l203 -131l-11 241h230l-10 -241l202 131l115 -199l-215 -111l215 -110l-115 -199l-202 131l10 -242h-230l11 242l-203 -131z" />
<glyph unicode="+" d="M100 422v315h312v312h315v-312h311v-315h-311v-311h-315v311h-312z" />
<glyph unicode="," horiz-adv-x="589" d="M117 356h356v-458l-356 -263v721z" />
<glyph unicode="-" horiz-adv-x="872" d="M100 446v316h672v-316h-672z" />
<glyph unicode="." horiz-adv-x="602" d="M117 0v369h368v-369h-368z" />
<glyph unicode="/" horiz-adv-x="882" d="M0 -152l584 1762h311l-584 -1762h-311z" />
<glyph unicode="0" d="M100 442v574q0 215 137.5 334.5t331.5 119.5q195 0 332 -119.5t137 -334.5v-574q0 -215 -137 -334.5t-332 -119.5t-332 119.5t-137 334.5zM436 440q0 -74 38 -111.5t96 -37.5t95 37t37 112v576q0 74 -36.5 112.5t-95 38.5t-96.5 -37.5t-38 -113.5v-576z" />
<glyph unicode="1" d="M184 829v359l312 270h335v-1458h-335v1100z" />
<glyph unicode="2" d="M109 0v303l528 574q74 80 74 155q0 135 -131 135q-57 0 -96.5 -31.5t-39.5 -109.5h-335q0 207 135 325.5t339 118.5t334 -118.5t130 -321.5q0 -109 -40 -180.5t-141 -177.5l-348 -369h529v-303h-938z" />
<glyph unicode="3" d="M86 444h336q0 -74 42 -113.5t109.5 -39.5t107.5 38t40 111.5t-43 116.5t-113 43h-47v291h47q70 0 105 41t35 102.5t-38 97t-94.5 35.5t-95.5 -36.5t-39 -100.5h-336q0 201 134.5 320.5t336 119.5t334.5 -120.5t133 -311.5q0 -111 -41 -176t-110 -108q78 -53 123 -125 t45 -193q0 -217 -139.5 -332.5t-344.5 -115.5t-346 112.5t-141 343.5z" />
<glyph unicode="4" d="M53 193v319l484 946h368l-483 -946h235v193h320v-193h108v-319h-108v-193h-320v193h-604z" />
<glyph unicode="5" d="M102 444h336q16 -153 137 -153q57 0 97.5 40t40.5 161t-35 167t-102 46t-94 -29t-44 -76h-309v858h889v-303h-584v-225q27 20 80 38.5t130 18.5t149.5 -27.5t136.5 -91.5q119 -119 119 -370q0 -137 -28 -221t-95 -151q-138 -138 -351 -138q-219 0 -353 134 q-120 120 -120 322z" />
<glyph unicode="6" d="M78 457q0 102 30.5 183t108.5 241l281 577h368l-288 -571q27 10 81 10q150 0 270 -117.5t120 -331.5t-138.5 -337t-345.5 -123t-347 124t-140 345zM414 457q0 -78 42 -122t106 -44t107.5 44t43.5 122t-42 122t-106.5 44t-107.5 -44t-43 -122z" />
<glyph unicode="7" d="M70 926v532h999v-303l-455 -1155h-368l454 1155h-311v-229h-319z" />
<glyph unicode="8" d="M80 436q0 117 48 187.5t116 126.5q-63 53 -106.5 118.5t-43.5 169.5q0 199 138.5 315.5t336 116.5t336.5 -116.5t139 -315.5q0 -102 -45 -169.5t-104 -118.5q70 -57 117 -126t47 -188q0 -217 -137.5 -332.5t-351.5 -115.5t-352 114.5t-138 333.5zM416 444q0 -63 45 -108 t108 -45t108.5 45t45.5 108t-45.5 108.5t-108.5 45.5t-108 -45t-45 -109zM430 1028q0 -59 40 -99t99 -40t99.5 40t40.5 99t-40.5 99t-99.5 40t-99 -40t-40 -99z" />
<glyph unicode="9" d="M90 1010.5q0 213.5 138.5 336.5t345 123t347 -123.5t140.5 -345.5q0 -102 -30.5 -182.5t-108.5 -240.5l-281 -578h-369l289 571q-27 -10 -82 -10q-150 0 -269.5 118t-119.5 331.5zM426 1001q0 -78 42 -121.5t106 -43.5t107.5 44t43.5 121q0 78 -42 122t-106.5 44 t-107.5 -44t-43 -122z" />
<glyph unicode=":" horiz-adv-x="649" d="M164 0v369h368v-369h-368zM164 518v369h368v-369h-368z" />
<glyph unicode=";" horiz-adv-x="649" d="M164 518v369h368v-369h-368zM170 356h356v-458l-356 -263v721z" />
<glyph unicode="&#x3c;" horiz-adv-x="2103" d="M96 604l772 772h420l-622 -614h1339v-316h-1339l622 -614h-420z" />
<glyph unicode="=" d="M100 197v315h938v-315h-938zM100 696v316h938v-316h-938z" />
<glyph unicode="&#x3e;" horiz-adv-x="2103" d="M96 446v316h1342l-623 614h420l772 -772l-772 -772h-420l623 614h-1342z" />
<glyph unicode="?" horiz-adv-x="1101" d="M123 1038q0 201 132 316.5t326 115.5t326.5 -113.5t132.5 -316.5q0 -128 -104 -262l-141 -178q-37 -49 -37 -96v-19h-336v47q0 129 84 228l143 168q56 66 56 117.5t-31 86.5t-92 35t-92 -34.5t-31 -94.5h-336zM418 0v330h344v-330h-344z" />
<glyph unicode="@" horiz-adv-x="1605" d="M100 350v570q0 152 27 247t102.5 170.5t177 104t250.5 28.5h291q150 0 250 -27.5t175 -102t103.5 -173t28.5 -247.5v-928l-309 8v82q-49 -49 -101.5 -71.5t-129.5 -22.5q-152 0 -231 75.5t-96 158.5t-17 244t15 238.5t96 155.5t223.5 78t230.5 -84v53q0 260 -260 260 h-246q-66 0 -110 -12t-82 -51q-68 -68 -68 -197v-536q0 -63 15.5 -98t58.5 -78l-232 -232q-88 88 -125 171t-37 216zM940 463q0 -197 123 -197q63 0 93 45t30 152q0 196 -123 196q-63 0 -93 -45t-30 -151z" />
<glyph unicode="A" horiz-adv-x="1337" d="M0 0l530 1458h277l530 -1458h-374l-68 217h-449l-71 -217h-375zM547 516h254l-123 389z" />
<glyph unicode="B" horiz-adv-x="1337" d="M147 0v1458h605q223 0 344 -114.5t121 -307.5q0 -109 -49.5 -178.5t-110.5 -109.5q78 -47 129 -115t51 -203q0 -205 -126 -317.5t-329 -112.5h-635zM506 322h242q68 0 99.5 37.5t31.5 90t-31.5 90.5t-99.5 38h-242v-256zM506 899h223q68 0 98.5 35t30.5 84t-30.5 84 t-98.5 35h-223v-238z" />
<glyph unicode="C" horiz-adv-x="1247" d="M100 734q0 228 21.5 348t114.5 212q176 176 404 176t377.5 -120.5t188.5 -354.5h-364q-20 74 -61.5 115t-108 41t-101 -15.5t-59.5 -48t-39 -105.5t-14 -256t12 -249.5t51 -118t127 -51.5t130 42t63 114h364q-39 -233 -187.5 -354t-378 -121t-362.5 133t-155.5 259 t-22.5 354z" />
<glyph unicode="D" horiz-adv-x="1333" d="M147 0v1458h541q251 0 394 -144q75 -75 113 -172.5t38 -307.5v-213q0 -170 -26 -274t-112 -190q-157 -157 -407 -157h-541zM506 319h158q115 0 170 80q26 37 33 93.5t7 235.5t-7.5 237.5t-32.5 95.5q-53 78 -170 78h-158v-820z" />
<glyph unicode="E" horiz-adv-x="1245" d="M147 0v1458h992v-319h-633v-244h541v-320h-541v-256h633v-319h-992z" />
<glyph unicode="F" horiz-adv-x="1220" d="M147 0v1458h992v-319h-633v-256h541v-320h-541v-563h-359z" />
<glyph unicode="G" horiz-adv-x="1325" d="M100 734q0 228 21.5 348t114 212t191.5 134t226 42q260 0 400.5 -139t169.5 -344h-361q-23 86 -70 125t-116.5 39t-105 -17.5t-61.5 -50t-38 -101.5t-12 -253t12 -253.5t50 -119t138 -49.5t141.5 43t54.5 83t13 87v21h-215v299h572v-203q0 -184 -32 -291.5t-117 -195.5 q-156 -162 -410.5 -162t-387.5 133t-155.5 259t-22.5 354z" />
<glyph unicode="H" horiz-adv-x="1392" d="M147 0v1458h359v-561h381v561h358v-1458h-358v578h-381v-578h-359z" />
<glyph unicode="I" horiz-adv-x="653" d="M147 0v1458h359v-1458h-359z" />
<glyph unicode="J" horiz-adv-x="1056" d="M-16 147l235 234q37 -37 72 -55.5t106.5 -18.5t122.5 49.5t51 151.5v950h359v-958q0 -246 -162 -379t-387 -133q-129 0 -219 35.5t-178 123.5z" />
<glyph unicode="K" horiz-adv-x="1378" d="M147 0v1458h355v-516l422 516h438l-498 -590l514 -868h-417l-336 598l-123 -141v-457h-355z" />
<glyph unicode="L" horiz-adv-x="1179" d="M147 0v1458h359v-1139h612v-319h-971z" />
<glyph unicode="M" horiz-adv-x="1654" d="M147 0v1458h353l327 -643l328 643h352v-1458h-358v698l-207 -360h-229l-207 360v-698h-359z" />
<glyph unicode="N" horiz-adv-x="1433" d="M147 0v1458h314l467 -733v733h358v-1458h-313l-467 733v-733h-359z" />
<glyph unicode="O" horiz-adv-x="1310" d="M100 734q0 228 21.5 348t115 213.5t191.5 134t227 40.5q244 0 377 -133t155.5 -259t22.5 -354t-21.5 -348t-114.5 -213t-191.5 -134t-227.5 -41q-244 0 -377 133t-155.5 259t-22.5 354zM459 729q0 -184 12 -251.5t37 -99.5q54 -71 147.5 -71t132.5 51.5t51.5 119 t12.5 250.5t-12 252.5t-36 102.5q-51 68 -149 68q-92 0 -146 -67q-26 -33 -38 -102t-12 -253z" />
<glyph unicode="P" horiz-adv-x="1284" d="M147 0v1458h578q233 0 365.5 -138t132.5 -329.5t-133.5 -331t-364.5 -139.5h-219v-520h-359zM506 842h203q72 0 113.5 44t41.5 103t-41.5 103.5t-113.5 44.5h-203v-295z" />
<glyph unicode="Q" horiz-adv-x="1310" d="M100 734q0 228 21.5 348t115 213.5t191.5 134t227 40.5q244 0 377 -133t155.5 -259t22.5 -349v-67q0 -186 -20.5 -274.5t-63.5 -156.5l107 -106l-182 -182l-113 112q-115 -67 -278 -67h-5q-244 0 -377 133t-155.5 259t-22.5 354zM459 729q0 -184 12 -251.5t37 -99.5 q54 -71 147 -71l29 2l-92 92l182 183l70 -70l8 215q0 182 -12 251.5t-36 102.5q-51 68 -149 68q-92 0 -146 -67q-26 -33 -38 -102t-12 -253z" />
<glyph unicode="R" horiz-adv-x="1335" d="M147 0v1458h578q233 0 365.5 -138t132.5 -331q0 -137 -70 -234.5t-168 -146.5l315 -608h-415l-258 543h-121v-543h-359zM506 842h203q72 0 113.5 44t41.5 103t-41.5 103.5t-113.5 44.5h-203v-295z" />
<glyph unicode="S" horiz-adv-x="1214" d="M10 180l230 230q103 -103 318.5 -103t215.5 131q0 82 -66 111q-22 10 -59 14l-176 25q-195 29 -294 130t-99 298t143.5 325.5t388.5 128.5q162 0 280 -39.5t212 -134.5l-225 -225q-86 86 -250 86h-27q-88 0 -132 -40t-44 -95q0 -61 68 -96q22 -11 61 -15l176 -24 q193 -27 268.5 -101.5t101 -153.5t25.5 -186q0 -213 -160.5 -335.5t-402.5 -122.5q-182 0 -314 42t-239 150z" />
<glyph unicode="T" horiz-adv-x="1198" d="M61 1139v319h1076v-319h-359v-1139h-358v1139h-359z" />
<glyph unicode="U" horiz-adv-x="1351" d="M123 512v946h358v-938q0 -100 50.5 -156.5t141.5 -56.5t144 55.5t53 157.5v938h359v-946q0 -233 -161 -378.5t-394 -145.5t-392 144t-159 380z" />
<glyph unicode="V" horiz-adv-x="1230" d="M0 1458h371l245 -815l242 815h373l-483 -1458h-267z" />
<glyph unicode="W" horiz-adv-x="1855" d="M0 1458h375l190 -770l236 770h254l235 -770l191 770h374l-399 -1458h-293l-235 719l-236 -719h-291z" />
<glyph unicode="X" horiz-adv-x="1298" d="M0 0l455 748l-426 710h407l213 -411l213 411h408l-426 -710l454 -748h-409l-240 449l-239 -449h-410z" />
<glyph unicode="Y" horiz-adv-x="1239" d="M0 1458h391l230 -524l227 524h391l-440 -864v-594h-359v594z" />
<glyph unicode="Z" horiz-adv-x="1112" d="M61 0v279l560 860h-535v319h965v-278l-562 -861h562v-319h-990z" />
<glyph unicode="[" horiz-adv-x="851" d="M147 -152v1762h623v-303h-287v-1155h287v-304h-623z" />
<glyph unicode="\" horiz-adv-x="882" d="M0 1573h311l572 -1725h-312z" />
<glyph unicode="]" horiz-adv-x="851" d="M82 -152v304h287v1155h-287v303h623v-1762h-623z" />
<glyph unicode="^" horiz-adv-x="1310" d="M117 768l383 707h311l383 -707h-354l-185 338l-184 -338h-354z" />
<glyph unicode="_" horiz-adv-x="1310" d="M0 -160h1311v-221h-1311v221z" />
<glyph unicode="`" horiz-adv-x="1024" d="M186 1618h344l101 -369h-203z" />
<glyph unicode="a" horiz-adv-x="1097" d="M55 346q0 135 94.5 227.5t280.5 92.5h223v28q0 74 -37.5 105.5t-114.5 31.5t-112 -15t-78 -58l-209 209q82 82 172.5 114.5t229.5 32.5q485 0 485 -399v-715h-327v90q-53 -53 -106.5 -76.5t-139.5 -23.5q-166 0 -238 71.5t-97.5 139t-25.5 145.5zM377 354 q0 -39 28.5 -65.5t82.5 -26.5t79 7t55.5 36t30.5 109v28h-170q-49 0 -77.5 -24.5t-28.5 -63.5z" />
<glyph unicode="b" horiz-adv-x="1165" d="M127 0v1458h336v-436q92 92 252 92t252 -92t101 -214t9 -257v-62q0 -147 -18 -241t-84 -160q-100 -100 -268 -100q-84 0 -142.5 24.5t-111.5 77.5v-90h-326zM463 551q0 -137 25.5 -198.5t113.5 -61.5t113.5 61.5t25.5 198.5t-25.5 198.5t-113.5 61.5t-113.5 -61.5 t-25.5 -198.5z" />
<glyph unicode="c" horiz-adv-x="972" d="M78 549.5q0 320.5 151.5 442.5t343.5 122q220 0 363 -141l-227 -228q-66 66 -131.5 66t-114.5 -50t-49 -210q0 -260 159 -260q70 0 136 65l227 -227q-141 -141 -349.5 -141t-358.5 120.5t-150 441z" />
<glyph unicode="d" horiz-adv-x="1165" d="M88 489v62q0 180 15.5 285.5t101.5 191.5t246 86t251 -92v436h336v-1458h-325v90q-102 -102 -262 -102t-241 82t-101.5 181t-20.5 238zM424 551q0 -137 25.5 -198.5t113.5 -61.5t113.5 61.5t25.5 198.5t-25.5 198.5t-113.5 61.5t-113.5 -61.5t-25.5 -198.5z" />
<glyph unicode="e" horiz-adv-x="1144" d="M78 551q0 264 136 413.5t362 149.5t358.5 -148.5t132.5 -373.5v-150h-659q0 -72 52 -122t140 -50t133 20.5t96 71.5l201 -200q-90 -90 -185 -132t-243 -42q-227 0 -375.5 119.5t-148.5 443.5zM408 666h327q0 48 -18 88q-39 84 -146 84q-108 0 -146 -85q-17 -38 -17 -87z " />
<glyph unicode="f" horiz-adv-x="733" d="M61 801v258h101v96q0 131 86 228.5t256 97.5h178v-283h-117q-68 0 -67 -68v-71h184v-258h-184v-801h-336v801h-101z" />
<glyph unicode="g" horiz-adv-x="1148" d="M88 597q0 179 16.5 264t100.5 169t246 84q84 0 137 -23.5t108 -78.5v90h326v-1022q0 -197 -136.5 -323t-361.5 -126q-139 0 -235 31t-178 113l208 209q70 -70 176.5 -70t148.5 51t42 117v80q-92 -92 -244.5 -92t-235.5 83t-100.5 174t-17.5 270zM424 590 q0 -135 31.5 -176t97 -41t99.5 43t34 178t-31.5 176t-97 41t-99.5 -43t-34 -178z" />
<glyph unicode="h" horiz-adv-x="1173" d="M127 0v1458h336v-446q102 102 258 102t246 -111.5t90 -287.5v-715h-336v668q0 80 -41 111.5t-87 31.5t-88 -33t-42 -110v-668h-336z" />
<glyph unicode="i" horiz-adv-x="589" d="M127 0v1059h336v-1059h-336zM127 1214v256h336v-256h-336z" />
<glyph unicode="j" horiz-adv-x="589" d="M-57 -86h116q68 0 68 68v1077h336v-1102q0 -131 -86 -228.5t-256 -97.5h-178v283zM127 1214v256h336v-256h-336z" />
<glyph unicode="k" horiz-adv-x="1173" d="M127 0v1458h336v-741l297 385h403l-405 -457l416 -645h-416l-230 403l-65 -71v-332h-336z" />
<glyph unicode="l" horiz-adv-x="698" d="M117 326v1132h336v-1108q0 -67 65 -67h2h117v-283h-178q-170 0 -256 97.5t-86 228.5z" />
<glyph unicode="m" horiz-adv-x="1792" d="M127 0v1102h328v-90q47 47 116.5 74.5t139.5 27.5q166 0 268 -117q74 63 144.5 90t158.5 27t157.5 -24.5t126.5 -81.5q109 -109 109 -303v-705h-336v659q0 84 -43 118t-92 34t-92 -34t-43 -118v-659h-336v659q0 84 -43 118t-92 34t-92 -34t-43 -118v-659h-336z" />
<glyph unicode="n" horiz-adv-x="1185" d="M127 0v1102h328v-90q47 47 116.5 74.5t143.5 27.5t135 -23.5t118 -80.5q101 -101 101 -305v-705h-336v659q0 84 -43 118t-92 34t-92 -34t-43 -118v-659h-336z" />
<glyph unicode="o" horiz-adv-x="1126" d="M88 552q0 165 24.5 254t89.5 158q138 150 361 150t359 -146q63 -69 89.5 -163t26.5 -257t-24 -252t-88 -158q-139 -150 -363 -150q-223 0 -359 146q-63 69 -89.5 161t-26.5 257zM424 552q0 -93 9 -146q19 -115 130 -115t130 113q9 53 9 146t-9 146q-20 115 -130 115 q-111 0 -130 -113q-9 -53 -9 -146z" />
<glyph unicode="p" horiz-adv-x="1165" d="M127 -356v1458h326v-90q102 102 262 102t252 -92t101 -214t9 -257v-62q0 -147 -18 -241t-84 -160q-100 -100 -260 -100t-252 92v-436h-336zM463 551q0 -137 25.5 -198.5t113.5 -61.5t113.5 61.5t25.5 198.5t-25.5 198.5t-113.5 61.5t-113.5 -61.5t-25.5 -198.5z" />
<glyph unicode="q" horiz-adv-x="1165" d="M88 489v62q0 180 15.5 285.5t101.5 191.5t254 86q84 0 142 -24.5t112 -77.5v90h325v-1458h-336v436q-92 -92 -251.5 -92t-240.5 82t-101.5 181t-20.5 238zM424 551q0 -137 25.5 -198.5t113.5 -61.5t113.5 61.5t25.5 198.5t-25.5 198.5t-113.5 61.5t-113.5 -61.5 t-25.5 -198.5z" />
<glyph unicode="r" horiz-adv-x="972" d="M127 0v1102h328v-90q43 43 111.5 72.5t149.5 29.5t140 -22.5t117 -79.5l-254 -258q-57 57 -122 57t-99.5 -44t-34.5 -108v-659h-336z" />
<glyph unicode="s" horiz-adv-x="1032" d="M20 147l218 218q47 -47 108.5 -70t135.5 -23q167 0 167 72q0 63 -80 70l-170 16q-319 29 -319 320q0 172 131 268t292.5 96t266 -28.5t182.5 -106.5l-207 -207q-66 66 -233 66q-53 0 -81 -20.5t-28 -39t6.5 -39t65.5 -26.5l170 -17q166 -16 249 -107t83 -229 q0 -184 -135 -278t-318.5 -94t-291 27.5t-212.5 131.5z" />
<glyph unicode="t" horiz-adv-x="743" d="M51 801v258h101v315h335v-315h175v-258h-175v-451q0 -67 66 -67h2h107v-283h-168q-170 0 -256 97.5t-86 228.5v475h-101z" />
<glyph unicode="u" horiz-adv-x="1185" d="M117 397v705h336v-660q0 -84 43 -117.5t92 -33.5t92 33.5t43 117.5v660h336v-1102h-328v90q-47 -47 -116.5 -74.5t-143.5 -27.5t-135.5 23.5t-117.5 79.5q-101 101 -101 306z" />
<glyph unicode="v" horiz-adv-x="1067" d="M0 1102h352l183 -572l180 572h352l-405 -1102h-256z" />
<glyph unicode="w" horiz-adv-x="1597" d="M0 1102h354l138 -572l190 572h233l191 -572l137 572h354l-331 -1102h-269l-198 604l-199 -604h-268z" />
<glyph unicode="x" d="M0 0l383 563l-369 539h404l149 -266l154 266h403l-368 -539l383 -563h-404l-168 279l-164 -279h-403z" />
<glyph unicode="y" horiz-adv-x="1052" d="M0 1102h352l187 -572l178 572h352l-457 -1233q-61 -170 -194 -217q-62 -21 -139 -21h-127v303h71q47 0 71.5 15.5t41.5 66.5l31 93z" />
<glyph unicode="z" horiz-adv-x="1001" d="M61 0v248l420 551h-395v303h834v-248l-428 -551h428v-303h-859z" />
<glyph unicode="{" horiz-adv-x="1060" d="M82 578v303h119q78 0 113.5 35.5t35.5 123.5v244q0 142 93 235q91 91 249 91h287v-303h-143q-88 0 -119 -31t-31 -129v-213q0 -164 -149 -205q57 -14 103 -56t46 -149v-213q0 -98 31 -128.5t119 -30.5h143v-304h-287q-157 0 -248 90q-94 95 -94 236v244q0 88 -35.5 124 t-113.5 36h-119z" />
<glyph unicode="|" horiz-adv-x="745" d="M205 -152v1762h336v-1762h-336z" />
<glyph unicode="}" horiz-adv-x="1060" d="M82 -152v304h143q88 0 119 30.5t31 128.5v213q0 167 149 205q-57 14 -103 56t-46 149v213q0 98 -31 129t-119 31h-143v303h287q157 0 247 -90q95 -94 95 -236v-244q0 -88 35.5 -123.5t113.5 -35.5h119v-303h-119q-78 0 -113.5 -36t-35.5 -124v-244q0 -142 -93 -234 q-94 -92 -249 -92h-287z" />
<glyph unicode="~" horiz-adv-x="1323" d="M61 633q104 104 189.5 150t176.5 46t141 -13t110.5 -49t99.5 -47t86 -11q98 0 180 84l218 -213q-104 -104 -191.5 -150.5t-178.5 -46.5t-141.5 13.5t-110.5 49t-99 47t-86 11.5q-95 0 -181 -84z" />
<glyph unicode="&#xa1;" horiz-adv-x="749" d="M123 -356l90 972h242l90 -972h-422zM162 772v330h344v-330h-344z" />
<glyph unicode="&#xa2;" horiz-adv-x="1021" d="M78 750q0 233 105.5 371.5t275.5 176.5v160h258v-160q146 -33 268 -155l-219 -219q-51 51 -90 67v-483q36 16 90 67l219 -219q-122 -122 -268 -155v-201h-258v201q-168 39 -274.5 177t-106.5 372zM414 750.5q0 -150.5 37.5 -191.5t48.5 -47v475l-25 -20 q-61 -66 -61 -216.5z" />
<glyph unicode="&#xa3;" horiz-adv-x="1222" d="M72 569v258h123v131q0 246 161.5 379t386.5 133q129 0 219.5 -35.5t178.5 -123.5l-236 -234q-37 37 -71.5 55.5t-106.5 18.5t-123 -49t-51 -152v-123h190v-258h-190v-250h588v-319h-946v569h-123z" />
<glyph unicode="&#xa4;" horiz-adv-x="1380" d="M96 233l150 150q-53 108 -53 219t53 223l-150 150l223 223l150 -149q108 53 216.5 53t225.5 -53l150 149l223 -223l-149 -150q53 -108 53 -216.5t-53 -225.5l149 -150l-223 -223l-150 150q-110 -54 -219 -54t-223 54l-150 -150zM496 604q0 -80 57 -137t137 -57t137.5 57 t57.5 137t-57.5 137.5t-137.5 57.5t-137 -57.5t-57 -137.5z" />
<glyph unicode="&#xa5;" horiz-adv-x="1239" d="M0 1458h391l230 -524l227 524h391l-256 -504h123v-258h-256l-51 -102v-102h307v-259h-307v-233h-359v233h-307v259h307v102l-51 102h-256v258h123z" />
<glyph unicode="&#xa6;" horiz-adv-x="1390" d="M72 600v274h133v584h540q251 0 395 -144q74 -75 112 -172.5t38 -307.5v-213q0 -170 -25.5 -274t-111.5 -190q-157 -157 -408 -157h-540v600h-133zM563 319h158q115 0 171 80q26 37 33 93.5t7 235.5t-8 237.5t-33 95.5q-53 78 -170 78h-158v-265h185v-274h-185v-281z" />
<glyph unicode="&#xa7;" horiz-adv-x="1056" d="M92 559q0 96 53.5 172t116.5 115q-59 37 -97 96t-38 162q0 147 100.5 256.5t308.5 109.5t307 -105t99 -265h-311q0 43 -28 64.5t-72.5 21.5t-68.5 -21.5t-24 -50.5q0 -57 115 -98l111 -41q168 -61 238.5 -142t70.5 -249q0 -94 -53.5 -170t-112.5 -117 q66 -41 105.5 -103.5t39.5 -173.5q0 -193 -127 -291t-296 -98t-294.5 92.5t-125.5 290.5h319q0 -35 27.5 -62.5t75.5 -27.5t75 24.5t27 63.5q0 72 -121 115l-111 41q-168 61 -238.5 142t-70.5 249zM412 571q0 -98 74 -127q18 -8 46 -8q78 0 109 66q12 26 12 69q0 99 -73 129 q-19 7 -48 7q-77 0 -108 -67q-12 -26 -12 -69z" />
<glyph unicode="&#xa8;" horiz-adv-x="1024" d="M143 1247v297h275v-297h-275zM606 1247v297h275v-297h-275z" />
<glyph unicode="&#xa9;" horiz-adv-x="1683" d="M100 729q0 307 217.5 524t524.5 217t524 -217t217 -524t-217 -524t-524 -217t-524.5 217t-217.5 524zM311 729q0 -238 150.5 -390.5t380.5 -152.5q229 0 379.5 153t150.5 390q0 238 -150.5 390.5t-379.5 152.5t-380 -152.5t-151 -390.5zM489 729q0 195 109 294t262 99 q148 0 270 -106l-137 -137q-66 55 -136.5 55t-113.5 -51.5t-43 -152.5t43 -153.5t113 -52.5t137 56l137 -138q-63 -53 -124.5 -79.5t-145.5 -26.5q-154 0 -262.5 99.5t-108.5 293.5z" />
<glyph unicode="&#xaa;" horiz-adv-x="935" d="M88 848q0 119 75 191.5t224 72.5h178v23q0 59 -31.5 84.5t-92 25.5t-86 -11t-62.5 -48l-168 168q68 68 136.5 92t184.5 24q387 0 388 -319v-571h-263v71q-43 -43 -86 -61.5t-109.5 -18.5t-118.5 20.5t-110.5 79t-58.5 177.5zM348 864q0 -72 84 -71q47 0 66.5 5t43 28.5 t23.5 82.5v25h-135q-39 0 -60.5 -19.5t-21.5 -50.5z" />
<glyph unicode="&#xab;" horiz-adv-x="1376" d="M61 573l560 553v-395l-162 -158l162 -159v-396zM694 573l559 553v-395l-166 -158l166 -159v-396z" />
<glyph unicode="&#xac;" d="M88 487v316h963v-623h-316v307h-647z" />
<glyph unicode="&#xad;" horiz-adv-x="872" d="M100 446v316h672v-316h-672z" />
<glyph unicode="&#xae;" horiz-adv-x="1683" d="M100 729q0 307 217.5 524t524.5 217t524 -217t217 -524t-217 -524t-524 -217t-524.5 217t-217.5 524zM311 729q0 -238 150.5 -390.5t380.5 -152.5q229 0 379.5 153t150.5 390q0 238 -150.5 390.5t-379.5 152.5t-380 -152.5t-151 -390.5zM557 342v774h346 q123 0 193.5 -72.5t70.5 -161.5q0 -156 -125 -216l146 -324h-240l-117 289h-63v-289h-211zM768 788h106q37 0 59.5 23t22.5 55q0 33 -22.5 55.5t-59.5 22.5h-106v-156z" />
<glyph unicode="&#xaf;" horiz-adv-x="1024" d="M178 1309v215h668v-215h-668z" />
<glyph unicode="&#xb0;" horiz-adv-x="995" d="M96 1094q0 166 118 283.5t284 117.5t283.5 -117.5t117.5 -283.5t-117.5 -284t-283.5 -118t-284 118t-118 284zM365 1094q0 -55 38.5 -94t94.5 -39q55 0 94 38.5t39 94.5q0 55 -39 94t-94 39t-94 -39t-39 -94z" />
<glyph unicode="&#xb1;" d="M100 0v315h938v-315h-938zM100 760v315h312v311h315v-311h311v-315h-311v-311h-315v311h-312z" />
<glyph unicode="&#xb2;" horiz-adv-x="768" d="M82 862h235q0 -74 66 -74t66 72q0 29 -18.5 49.5t-49.5 20.5h-33v203h33q31 0 46 19t15 44t-16 41t-41 16q-57 0 -57 -63h-238q0 125 84 200.5t210 75.5t210 -75.5t84 -190.5q0 -68 -21.5 -100.5t-60.5 -63.5q39 -37 64.5 -77.5t25.5 -106.5q0 -135 -88 -206t-214 -71 t-214 70t-88 217z" />
<glyph unicode="&#xb3;" horiz-adv-x="1851" d="M72 1024v266l194 168h238v-874h-238v608zM397 0l695 1458h258l-695 -1458h-258zM1182 0v213l309 315q45 45 45 82q0 60 -58.5 60t-58.5 -62h-237q0 129 85 202t212 73t208.5 -73t81.5 -200q0 -68 -27.5 -116t-92.5 -111l-179 -170h299v-213h-587z" />
<glyph unicode="&#xb4;" horiz-adv-x="1024" d="M393 1249l101 369h344l-242 -369h-203z" />
<glyph unicode="&#xb5;" horiz-adv-x="1196" d="M127 -356v1458h336v-660q0 -84 43 -117.5t92 -33.5t92 33.5t43 117.5v660h336v-1102h-328v90q-47 -47 -116.5 -74.5t-139.5 -27.5h-22v-344h-336z" />
<glyph unicode="&#xb6;" horiz-adv-x="1447" d="M61 1030q0 215 134.5 321.5t359.5 106.5h745v-1814h-335v1495h-185v-1495h-336v966q-143 0 -263 122t-120 298z" />
<glyph unicode="&#xb7;" horiz-adv-x="602" d="M117 420v368h368v-368h-368z" />
<glyph unicode="&#xb8;" horiz-adv-x="1024" d="M309 -410l137 295h236l-74 -295h-299z" />
<glyph unicode="&#xb9;" horiz-adv-x="751" d="M82 584v213l309 315q45 45 45 82q0 59 -58.5 59t-58.5 -61h-237q0 129 85 201.5t212 72.5t209 -72.5t82 -199.5q0 -68 -28 -116t-93 -111l-178 -170h299v-213h-588z" />
<glyph unicode="&#xba;" horiz-adv-x="954" d="M96 1023q0 130 21.5 201.5t72.5 127.5q110 118 287 118q181 0 287 -118q49 -54 71.5 -129.5t22.5 -206.5t-20.5 -202t-72.5 -126q-113 -119 -288 -119q-178 0 -287 118q-49 54 -71.5 130t-22.5 206zM367 1006.5q0 -60.5 7 -103.5q15 -92 103 -92q96 0 106 107 q5 55 5 115.5t-7 102.5q-15 93 -104 93q-95 0 -105 -107q-5 -55 -5 -115.5z" />
<glyph unicode="&#xbb;" horiz-adv-x="1376" d="M123 18v396l164 159l-164 158v395l559 -553zM756 18v396l162 159l-162 158v395l559 -553z" />
<glyph unicode="&#xbc;" horiz-adv-x="1824" d="M82 862h235q0 -74 66 -74t66 72q0 29 -18.5 49.5t-49.5 20.5h-33v203h33q31 0 46 19t15 44t-16 41t-41 16q-57 0 -57 -63h-238q0 125 84 200.5t210 75.5t210 -75.5t84 -190.5q0 -68 -21.5 -100.5t-60.5 -63.5q39 -37 64.5 -77.5t25.5 -106.5q0 -135 -88 -206t-214 -71 t-214 70t-88 217zM438 0l695 1458h258l-695 -1458h-258zM1100 109v225l282 540h260l-284 -540h108v76h224v-76h53v-225h-53v-109h-224v109h-366z" />
<glyph unicode="&#xbd;" horiz-adv-x="1783" d="M72 1024v266l194 168h238v-874h-238v608zM397 0l695 1458h258l-695 -1458h-258zM1059 109v225l282 540h261l-285 -540h108v76h224v-76h53v-225h-53v-109h-224v109h-366z" />
<glyph unicode="&#xbf;" horiz-adv-x="1101" d="M61 61q0 126 105 263l141 178q37 49 37 96v18h336v-47q0 -129 -84 -227l-143 -168q-56 -66 -56 -118t31 -87t92 -35t92 35t31 94h336q0 -201 -132 -316.5t-326 -115.5t-327 114t-133 316zM340 772v330h344v-330h-344z" />
<glyph unicode="&#xc0;" horiz-adv-x="1337" d="M0 0l530 1458h277l530 -1458h-374l-68 217h-449l-71 -217h-375zM342 1970h344l101 -369h-203zM547 516h254l-123 389z" />
<glyph unicode="&#xc1;" horiz-adv-x="1337" d="M0 0l530 1458h277l530 -1458h-374l-68 217h-449l-71 -217h-375zM547 516h254l-123 389zM549 1601l101 369h344l-242 -369h-203z" />
<glyph unicode="&#xc2;" horiz-adv-x="1337" d="M0 0l530 1458h277l530 -1458h-374l-68 217h-449l-71 -217h-375zM260 1601l279 367h258l279 -367h-246l-162 170l-162 -170h-246zM547 516h254l-123 389z" />
<glyph unicode="&#xc3;" horiz-adv-x="1337" d="M0 0l530 1458h277l530 -1458h-374l-68 217h-449l-71 -217h-375zM273 1788q68 68 125 98.5t115.5 30.5t94 -9.5t88 -40t96.5 -30.5t67.5 9t60.5 46l143 -141q-129 -129 -243 -129q-58 0 -93.5 9t-88 40t-97.5 31t-68.5 -9.5t-60.5 -46.5zM547 516h254l-123 389z" />
<glyph unicode="&#xc4;" horiz-adv-x="1337" d="M0 0l530 1458h277l530 -1458h-374l-68 217h-449l-71 -217h-375zM299 1599v297h275v-297h-275zM547 516h254l-123 389zM762 1599v297h275v-297h-275z" />
<glyph unicode="&#xc5;" horiz-adv-x="1337" d="M0 0l530 1458h277l530 -1458h-374l-68 217h-449l-71 -217h-375zM385 1829q0 117 83 200t200 83t200 -83t83 -200t-83 -200t-200 -83t-200 83t-83 200zM547 516h254l-123 389zM562 1829q0 -43 31.5 -74.5t74.5 -31.5t74.5 31.5t31.5 74.5t-31.5 75t-74.5 32t-74.5 -32 t-31.5 -75z" />
<glyph unicode="&#xc6;" horiz-adv-x="2074" d="M0 0l758 1458h1210v-319h-633v-244h541v-320h-541v-256h633v-319h-991v305h-434l-158 -305h-385zM698 604h279v535z" />
<glyph unicode="&#xc7;" horiz-adv-x="1247" d="M100 734q0 228 21.5 348t114.5 212q176 176 404 176t377.5 -120.5t188.5 -354.5h-364q-20 74 -61.5 115t-108 41t-101 -15.5t-59.5 -48t-39 -105.5t-14 -256t12 -249.5t51 -118t127 -51.5t130 42t63 114h364q-39 -233 -187.5 -354t-378 -121t-362.5 133t-155.5 259 t-22.5 354zM415 -410l137 295h236l-74 -295h-299z" />
<glyph unicode="&#xc8;" horiz-adv-x="1245" d="M147 0v1458h992v-319h-633v-244h541v-320h-541v-256h633v-319h-992zM305 1970h344l101 -369h-203z" />
<glyph unicode="&#xc9;" horiz-adv-x="1245" d="M147 0v1458h992v-319h-633v-244h541v-320h-541v-256h633v-319h-992zM512 1601l101 369h344l-242 -369h-203z" />
<glyph unicode="&#xca;" horiz-adv-x="1245" d="M147 0v1458h992v-319h-633v-244h541v-320h-541v-256h633v-319h-992zM223 1601l279 367h258l279 -367h-246l-162 170l-162 -170h-246z" />
<glyph unicode="&#xcb;" horiz-adv-x="1245" d="M147 0v1458h992v-319h-633v-244h541v-320h-541v-256h633v-319h-992zM262 1599v297h275v-297h-275zM725 1599v297h275v-297h-275z" />
<glyph unicode="&#xcc;" horiz-adv-x="653" d="M147 0v1458h359v-1458h-359zM151 1970h344l101 -369h-203z" />
<glyph unicode="&#xcd;" horiz-adv-x="653" d="M147 0v1458h359v-1458h-359zM213 1601l101 369h344l-242 -369h-203z" />
<glyph unicode="&#xce;" horiz-adv-x="653" d="M147 0v1458h359v-1458h-359zM147 1601l279 367h258l279 -367h-246l-162 170l-162 -170h-246z" />
<glyph unicode="&#xcf;" horiz-adv-x="653" d="M147 0v1458h359v-1458h-359zM147 1599v297h275v-297h-275zM610 1599v297h275v-297h-275z" />
<glyph unicode="&#xd0;" horiz-adv-x="1126" d="M104 528.5q0 159.5 25 248.5t69 136.5t85 76t79 46.5q79 35 158 35l-41 82h-231v233h117l-46 95h361l45 -95h199v-233h-84l53 -117q76 -166 102.5 -261t26.5 -249t-24.5 -242.5t-85.5 -153.5q-136 -142 -349 -142q-216 0 -347 140q-62 67 -87 154t-25 246.5zM440 524 q0 -86 7.5 -131t36 -73.5t79.5 -28.5q96 0 114 107q9 53 9 138.5t-7 130.5t-36 74t-80 29q-95 0 -113 -106q-10 -54 -10 -140z" />
<glyph unicode="&#xd1;" horiz-adv-x="1433" d="M147 0v1458h314l467 -733v733h358v-1458h-313l-467 733v-733h-359zM322 1788q68 68 125 98.5t115.5 30.5t94 -9.5t88 -40t96.5 -30.5t67.5 9t60.5 46l143 -141q-129 -129 -243 -129q-58 0 -93.5 9t-88 40t-97.5 31t-68.5 -9.5t-60.5 -46.5z" />
<glyph unicode="&#xd2;" horiz-adv-x="1310" d="M100 734q0 228 21.5 348t115 213.5t191.5 134t227 40.5q244 0 377 -133t155.5 -259t22.5 -354t-21.5 -348t-114.5 -213t-191.5 -134t-227.5 -41q-244 0 -377 133t-155.5 259t-22.5 354zM329 1970h344l101 -369h-203zM459 729q0 -184 12 -251.5t37 -99.5q54 -71 147.5 -71 t132.5 51.5t51.5 119t12.5 250.5t-12 252.5t-36 102.5q-51 68 -149 68q-92 0 -146 -67q-26 -33 -38 -102t-12 -253z" />
<glyph unicode="&#xd3;" horiz-adv-x="1310" d="M100 734q0 228 21.5 348t115 213.5t191.5 134t227 40.5q244 0 377 -133t155.5 -259t22.5 -354t-21.5 -348t-114.5 -213t-191.5 -134t-227.5 -41q-244 0 -377 133t-155.5 259t-22.5 354zM459 729q0 -184 12 -251.5t37 -99.5q54 -71 147.5 -71t132.5 51.5t51.5 119 t12.5 250.5t-12 252.5t-36 102.5q-51 68 -149 68q-92 0 -146 -67q-26 -33 -38 -102t-12 -253zM536 1601l101 369h344l-242 -369h-203z" />
<glyph unicode="&#xd4;" horiz-adv-x="1310" d="M100 734q0 228 21.5 348t115 213.5t191.5 134t227 40.5q244 0 377 -133t155.5 -259t22.5 -354t-21.5 -348t-114.5 -213t-191.5 -134t-227.5 -41q-244 0 -377 133t-155.5 259t-22.5 354zM247 1601l279 367h258l279 -367h-246l-162 170l-162 -170h-246zM459 729 q0 -184 12 -251.5t37 -99.5q54 -71 147.5 -71t132.5 51.5t51.5 119t12.5 250.5t-12 252.5t-36 102.5q-51 68 -149 68q-92 0 -146 -67q-26 -33 -38 -102t-12 -253z" />
<glyph unicode="&#xd5;" horiz-adv-x="1310" d="M100 734q0 228 21.5 348t115 213.5t191.5 134t227 40.5q244 0 377 -133t155.5 -259t22.5 -354t-21.5 -348t-114.5 -213t-191.5 -134t-227.5 -41q-244 0 -377 133t-155.5 259t-22.5 354zM260 1788q68 68 125 98.5t115.5 30.5t94 -9.5t88 -40t96.5 -30.5t67.5 9t60.5 46 l143 -141q-129 -129 -243 -129q-58 0 -93.5 9t-88 40t-97.5 31t-68.5 -9.5t-60.5 -46.5zM459 729q0 -184 12 -251.5t37 -99.5q54 -71 147.5 -71t132.5 51.5t51.5 119t12.5 250.5t-12 252.5t-36 102.5q-51 68 -149 68q-92 0 -146 -67q-26 -33 -38 -102t-12 -253z" />
<glyph unicode="&#xd6;" horiz-adv-x="1310" d="M100 734q0 228 21.5 348t115 213.5t191.5 134t227 40.5q244 0 377 -133t155.5 -259t22.5 -354t-21.5 -348t-114.5 -213t-191.5 -134t-227.5 -41q-244 0 -377 133t-155.5 259t-22.5 354zM286 1599v297h275v-297h-275zM459 729q0 -184 12 -251.5t37 -99.5q54 -71 147.5 -71 t132.5 51.5t51.5 119t12.5 250.5t-12 252.5t-36 102.5q-51 68 -149 68q-92 0 -146 -67q-26 -33 -38 -102t-12 -253zM749 1599v297h275v-297h-275z" />
<glyph unicode="&#xd7;" horiz-adv-x="636" d="M72 1024v266l194 168h238v-874h-238v608z" />
<glyph unicode="&#xd8;" horiz-adv-x="1310" d="M100 734q0 228 21.5 348t115 213.5t191.5 134t224 40.5t218 -36l56 114h241l-112 -233q110 -110 132.5 -236.5t22.5 -354.5t-21.5 -348t-114.5 -213t-191.5 -134t-224.5 -41t-218 37l-55 -115h-242l113 233l-8 9q-102 102 -125 228t-23 354zM459 729l6 -190l280 591 q-41 21 -89 21t-84.5 -17.5t-62.5 -50t-38 -101.5t-12 -253zM565 330q39 -23 90 -23q94 0 133 51.5t51.5 119t12.5 251.5l-6 191z" />
<glyph unicode="&#xd9;" horiz-adv-x="1351" d="M123 512v946h358v-938q0 -100 50.5 -156.5t141.5 -56.5t144 55.5t53 157.5v938h359v-946q0 -233 -161 -378.5t-394 -145.5t-392 144t-159 380zM350 1970h344l101 -369h-203z" />
<glyph unicode="&#xda;" horiz-adv-x="1351" d="M123 512v946h358v-938q0 -100 50.5 -156.5t141.5 -56.5t144 55.5t53 157.5v938h359v-946q0 -233 -161 -378.5t-394 -145.5t-392 144t-159 380zM557 1601l101 369h344l-242 -369h-203z" />
<glyph unicode="&#xdb;" horiz-adv-x="1351" d="M123 512v946h358v-938q0 -100 50.5 -156.5t141.5 -56.5t144 55.5t53 157.5v938h359v-946q0 -233 -161 -378.5t-394 -145.5t-392 144t-159 380zM268 1601l279 367h258l279 -367h-246l-162 170l-162 -170h-246z" />
<glyph unicode="&#xdc;" horiz-adv-x="1351" d="M123 512v946h358v-938q0 -100 50.5 -156.5t141.5 -56.5t144 55.5t53 157.5v938h359v-946q0 -233 -161 -378.5t-394 -145.5t-392 144t-159 380zM307 1599v297h275v-297h-275zM770 1599v297h275v-297h-275z" />
<glyph unicode="&#xdd;" horiz-adv-x="1052" d="M0 1102h352l187 -572l178 572h352l-457 -1233q-61 -170 -194 -217q-62 -21 -139 -21h-127v303h71q47 0 71.5 15.5t41.5 66.5l31 93zM407 1249l101 369h344l-242 -369h-203z" />
<glyph unicode="&#xde;" horiz-adv-x="1169" d="M127 -356v1814h336v-436q92 92 252 92t252 -92t101 -214t9 -257v-62q0 -147 -18 -241t-84 -160q-100 -100 -260 -100t-252 92v-436h-336zM463 551q0 -137 25.5 -198.5t113.5 -61.5t113.5 61.5t25.5 198.5t-25.5 198.5t-113.5 61.5t-113.5 -61.5t-25.5 -198.5z" />
<glyph unicode="&#xdf;" horiz-adv-x="1196" d="M127 0v1063q0 211 135 309t355 98t348.5 -92t128.5 -278q0 -155 -125 -223q57 -29 91 -75t34 -136v-312q0 -354 -369 -354h-107v283h39q99 0 99 98v264q0 98 -99 98h-39v258h48q90 0 90 86q0 37 -30 64t-112 27t-115.5 -34t-33.5 -110v-1034h-338z" />
<glyph unicode="&#xe0;" horiz-adv-x="1097" d="M55 346q0 135 94.5 227.5t280.5 92.5h223v28q0 74 -37.5 105.5t-114.5 31.5t-112 -15t-78 -58l-209 209q82 82 172.5 114.5t229.5 32.5q485 0 485 -399v-715h-327v90q-53 -53 -106.5 -76.5t-139.5 -23.5q-166 0 -238 71.5t-97.5 139t-25.5 145.5zM219 1618h344l101 -369 h-203zM377 354q0 -39 28.5 -65.5t82.5 -26.5t79 7t55.5 36t30.5 109v28h-170q-49 0 -77.5 -24.5t-28.5 -63.5z" />
<glyph unicode="&#xe1;" horiz-adv-x="1097" d="M55 346q0 135 94.5 227.5t280.5 92.5h223v28q0 74 -37.5 105.5t-114.5 31.5t-112 -15t-78 -58l-209 209q82 82 172.5 114.5t229.5 32.5q485 0 485 -399v-715h-327v90q-53 -53 -106.5 -76.5t-139.5 -23.5q-166 0 -238 71.5t-97.5 139t-25.5 145.5zM377 354 q0 -39 28.5 -65.5t82.5 -26.5t79 7t55.5 36t30.5 109v28h-170q-49 0 -77.5 -24.5t-28.5 -63.5zM426 1249l101 369h344l-242 -369h-203z" />
<glyph unicode="&#xe2;" horiz-adv-x="1097" d="M55 346q0 135 94.5 227.5t280.5 92.5h223v28q0 74 -37.5 105.5t-114.5 31.5t-112 -15t-78 -58l-209 209q82 82 172.5 114.5t229.5 32.5q485 0 485 -399v-715h-327v90q-53 -53 -106.5 -76.5t-139.5 -23.5q-166 0 -238 71.5t-97.5 139t-25.5 145.5zM137 1249l279 367h258 l279 -367h-246l-162 170l-162 -170h-246zM377 354q0 -39 28.5 -65.5t82.5 -26.5t79 7t55.5 36t30.5 109v28h-170q-49 0 -77.5 -24.5t-28.5 -63.5z" />
<glyph unicode="&#xe3;" horiz-adv-x="1097" d="M55 346q0 135 94.5 227.5t280.5 92.5h223v28q0 74 -37.5 105.5t-114.5 31.5t-112 -15t-78 -58l-209 209q82 82 172.5 114.5t229.5 32.5q485 0 485 -399v-715h-327v90q-53 -53 -106.5 -76.5t-139.5 -23.5q-166 0 -238 71.5t-97.5 139t-25.5 145.5zM150 1436 q68 68 125 98.5t115.5 30.5t94 -9.5t88 -40t96.5 -30.5t67.5 9t60.5 46l143 -141q-129 -129 -243 -129q-58 0 -93.5 9t-88 40t-97.5 31t-68.5 -9.5t-60.5 -46.5zM377 354q0 -39 28.5 -65.5t82.5 -26.5t79 7t55.5 36t30.5 109v28h-170q-49 0 -77.5 -24.5t-28.5 -63.5z" />
<glyph unicode="&#xe4;" horiz-adv-x="1097" d="M55 346q0 135 94.5 227.5t280.5 92.5h223v28q0 74 -37.5 105.5t-114.5 31.5t-112 -15t-78 -58l-209 209q82 82 172.5 114.5t229.5 32.5q485 0 485 -399v-715h-327v90q-53 -53 -106.5 -76.5t-139.5 -23.5q-166 0 -238 71.5t-97.5 139t-25.5 145.5zM176 1247v297h275v-297 h-275zM377 354q0 -39 28.5 -65.5t82.5 -26.5t79 7t55.5 36t30.5 109v28h-170q-49 0 -77.5 -24.5t-28.5 -63.5zM639 1247v297h275v-297h-275z" />
<glyph unicode="&#xe5;" horiz-adv-x="1097" d="M55 346q0 135 94.5 227.5t280.5 92.5h223v28q0 74 -37.5 105.5t-114.5 31.5t-112 -15t-78 -58l-209 209q82 82 172.5 114.5t229.5 32.5q485 0 485 -399v-715h-327v90q-53 -53 -106.5 -76.5t-139.5 -23.5q-166 0 -238 71.5t-97.5 139t-25.5 145.5zM262 1497q0 117 83 200 t200 83t200 -83t83 -200t-83 -200t-200 -83t-200 83t-83 200zM377 354q0 -39 28.5 -65.5t82.5 -26.5t79 7t55.5 36t30.5 109v28h-170q-49 0 -77.5 -24.5t-28.5 -63.5zM439 1497q0 -43 31.5 -74.5t74.5 -31.5t74.5 31.5t31.5 74.5t-31.5 75t-74.5 32t-74.5 -32t-31.5 -75z " />
<glyph unicode="&#xe6;" horiz-adv-x="1720" d="M55 346q0 135 94.5 227.5t280.5 92.5h223v28q0 74 -37.5 105.5t-114.5 31.5t-112 -15t-78 -58l-209 209q82 82 172.5 114.5t229.5 32.5q227 0 348 -92q121 92 295 92q231 0 363 -148.5t132 -373.5v-150h-659q0 -72 52 -122t140.5 -50t133.5 20.5t96 71.5l201 -200 q-90 -90 -185.5 -132t-242.5 -42q-254 0 -385 133q-92 -84 -174 -108.5t-224.5 -24.5t-215.5 72.5t-98.5 140t-25.5 145.5zM377 354q0 -39 28.5 -65.5t82.5 -26.5t79 7t55.5 36t30.5 109v28h-170q-49 0 -77.5 -24.5t-28.5 -63.5zM983 666h328q0 46 -19 87q-39 85 -145 85 q-107 0 -147 -85q-17 -38 -17 -87z" />
<glyph unicode="&#xe7;" horiz-adv-x="972" d="M78 549.5q0 320.5 151.5 442.5t343.5 122q220 0 363 -141l-227 -228q-66 66 -131.5 66t-114.5 -50t-49 -210q0 -260 159 -260q70 0 136 65l227 -227q-141 -141 -349.5 -141t-358.5 120.5t-150 441zM309 -410l137 295h236l-74 -295h-299z" />
<glyph unicode="&#xe8;" horiz-adv-x="1144" d="M78 551q0 264 136 413.5t362 149.5t358.5 -148.5t132.5 -373.5v-150h-659q0 -72 52 -122t140 -50t133 20.5t96 71.5l201 -200q-90 -90 -185 -132t-243 -42q-227 0 -375.5 119.5t-148.5 443.5zM254 1618h344l101 -369h-203zM408 666h327q0 48 -18 88q-39 84 -146 84 q-108 0 -146 -85q-17 -38 -17 -87z" />
<glyph unicode="&#xe9;" horiz-adv-x="1144" d="M78 551q0 264 136 413.5t362 149.5t358.5 -148.5t132.5 -373.5v-150h-659q0 -72 52 -122t140 -50t133 20.5t96 71.5l201 -200q-90 -90 -185 -132t-243 -42q-227 0 -375.5 119.5t-148.5 443.5zM408 666h327q0 48 -18 88q-39 84 -146 84q-108 0 -146 -85q-17 -38 -17 -87z M461 1249l101 369h344l-242 -369h-203z" />
<glyph unicode="&#xea;" horiz-adv-x="1144" d="M78 551q0 264 136 413.5t362 149.5t358.5 -148.5t132.5 -373.5v-150h-659q0 -72 52 -122t140 -50t133 20.5t96 71.5l201 -200q-90 -90 -185 -132t-243 -42q-227 0 -375.5 119.5t-148.5 443.5zM172 1249l279 367h258l279 -367h-246l-162 170l-162 -170h-246zM408 666h327 q0 48 -18 88q-39 84 -146 84q-108 0 -146 -85q-17 -38 -17 -87z" />
<glyph unicode="&#xeb;" horiz-adv-x="1144" d="M78 551q0 264 136 413.5t362 149.5t358.5 -148.5t132.5 -373.5v-150h-659q0 -72 52 -122t140 -50t133 20.5t96 71.5l201 -200q-90 -90 -185 -132t-243 -42q-227 0 -375.5 119.5t-148.5 443.5zM211 1247v297h275v-297h-275zM408 666h327q0 48 -18 88q-39 84 -146 84 q-108 0 -146 -85q-17 -38 -17 -87zM674 1247v297h275v-297h-275z" />
<glyph unicode="&#xec;" horiz-adv-x="589" d="M127 0v1102h336v-1102h-336zM131 1618h344l101 -369h-203z" />
<glyph unicode="&#xed;" horiz-adv-x="589" d="M127 0v1102h336v-1102h-336zM143 1249l101 369h344l-242 -369h-203z" />
<glyph unicode="&#xee;" horiz-adv-x="589" d="M127 0v1102h336v-1102h-336zM127 1249l279 367h258l279 -367h-246l-162 170l-162 -170h-246z" />
<glyph unicode="&#xef;" horiz-adv-x="589" d="M127 0v1102h336v-1102h-336zM131 1247v297h275v-297h-275zM594 1247v297h275v-297h-275z" />
<glyph unicode="&#xf0;" horiz-adv-x="1239" d="M0 1458h391l230 -524l227 524h391l-440 -864v-594h-359v594zM499 1601l101 369h344l-242 -369h-203z" />
<glyph unicode="&#xf1;" horiz-adv-x="1185" d="M127 0v1102h328v-90q47 47 116.5 74.5t143.5 27.5t135 -23.5t118 -80.5q101 -101 101 -305v-705h-336v659q0 84 -43 118t-92 34t-92 -34t-43 -118v-659h-336zM203 1436q68 68 125 98.5t115.5 30.5t94 -9.5t88 -40t96.5 -30.5t67.5 9t60.5 46l143 -141 q-129 -129 -243 -129q-58 0 -93.5 9t-88 40t-97.5 31t-68.5 -9.5t-60.5 -46.5z" />
<glyph unicode="&#xf2;" horiz-adv-x="1126" d="M88 552q0 165 24.5 254t89.5 158q138 150 361 150t359 -146q63 -69 89.5 -163t26.5 -257t-24 -252t-88 -158q-139 -150 -363 -150q-223 0 -359 146q-63 69 -89.5 161t-26.5 257zM237 1618h344l101 -369h-203zM424 552q0 -93 9 -146q19 -115 130 -115t130 113q9 53 9 146 t-9 146q-20 115 -130 115q-111 0 -130 -113q-9 -53 -9 -146z" />
<glyph unicode="&#xf3;" horiz-adv-x="1126" d="M88 552q0 165 24.5 254t89.5 158q138 150 361 150t359 -146q63 -69 89.5 -163t26.5 -257t-24 -252t-88 -158q-139 -150 -363 -150q-223 0 -359 146q-63 69 -89.5 161t-26.5 257zM424 552q0 -93 9 -146q19 -115 130 -115t130 113q9 53 9 146t-9 146q-20 115 -130 115 q-111 0 -130 -113q-9 -53 -9 -146zM444 1249l101 369h344l-242 -369h-203z" />
<glyph unicode="&#xf4;" horiz-adv-x="1126" d="M88 552q0 165 24.5 254t89.5 158q138 150 361 150t359 -146q63 -69 89.5 -163t26.5 -257t-24 -252t-88 -158q-139 -150 -363 -150q-223 0 -359 146q-63 69 -89.5 161t-26.5 257zM155 1249l279 367h258l279 -367h-246l-162 170l-162 -170h-246zM424 552q0 -93 9 -146 q19 -115 130 -115t130 113q9 53 9 146t-9 146q-20 115 -130 115q-111 0 -130 -113q-9 -53 -9 -146z" />
<glyph unicode="&#xf5;" horiz-adv-x="1126" d="M88 552q0 165 24.5 254t89.5 158q138 150 361 150t359 -146q63 -69 89.5 -163t26.5 -257t-24 -252t-88 -158q-139 -150 -363 -150q-223 0 -359 146q-63 69 -89.5 161t-26.5 257zM168 1436q68 68 125 98.5t115.5 30.5t94 -9.5t88 -40t96.5 -30.5t67.5 9t60.5 46l143 -141 q-129 -129 -243 -129q-58 0 -93.5 9t-88 40t-97.5 31t-68.5 -9.5t-60.5 -46.5zM424 552q0 -93 9 -146q19 -115 130 -115t130 113q9 53 9 146t-9 146q-20 115 -130 115q-111 0 -130 -113q-9 -53 -9 -146z" />
<glyph unicode="&#xf6;" horiz-adv-x="1126" d="M88 552q0 165 24.5 254t89.5 158q138 150 361 150t359 -146q63 -69 89.5 -163t26.5 -257t-24 -252t-88 -158q-139 -150 -363 -150q-223 0 -359 146q-63 69 -89.5 161t-26.5 257zM194 1247v297h275v-297h-275zM424 552q0 -93 9 -146q19 -115 130 -115t130 113q9 53 9 146 t-9 146q-20 115 -130 115q-111 0 -130 -113q-9 -53 -9 -146zM657 1247v297h275v-297h-275z" />
<glyph unicode="&#xf7;" d="M88 446v316h963v-316h-963zM410 0v319h319v-319h-319zM410 889v319h319v-319h-319z" />
<glyph unicode="&#xf8;" horiz-adv-x="1126" d="M88 558q0 159 24.5 248t89 158.5t151.5 109.5t207 40t216 -41l70 119h190l-125 -213q82 -86 104.5 -180t22.5 -254t-24 -249t-88 -158q-139 -150 -363 -150q-117 0 -213 41l-69 -119h-191l125 213q-82 86 -104.5 181t-22.5 254zM424 498q0 -23 4 -49l205 348 q-27 14 -78 14t-82 -30.5t-40 -83t-9 -113.5v-86zM494 305q27 -14 77.5 -14t81.5 30.5t40 83t9 146.5v74q-4 20 -4 28z" />
<glyph unicode="&#xf9;" horiz-adv-x="1185" d="M117 397v705h336v-660q0 -84 43 -117.5t92 -33.5t92 33.5t43 117.5v660h336v-1102h-328v90q-47 -47 -116.5 -74.5t-143.5 -27.5t-135.5 23.5t-117.5 79.5q-101 101 -101 306zM262 1618h344l101 -369h-203z" />
<glyph unicode="&#xfa;" horiz-adv-x="1185" d="M117 397v705h336v-660q0 -84 43 -117.5t92 -33.5t92 33.5t43 117.5v660h336v-1102h-328v90q-47 -47 -116.5 -74.5t-143.5 -27.5t-135.5 23.5t-117.5 79.5q-101 101 -101 306zM469 1249l101 369h344l-242 -369h-203z" />
<glyph unicode="&#xfb;" horiz-adv-x="1185" d="M117 397v705h336v-660q0 -84 43 -117.5t92 -33.5t92 33.5t43 117.5v660h336v-1102h-328v90q-47 -47 -116.5 -74.5t-143.5 -27.5t-135.5 23.5t-117.5 79.5q-101 101 -101 306zM180 1249l279 367h258l279 -367h-246l-162 170l-162 -170h-246z" />
<glyph unicode="&#xfc;" horiz-adv-x="1185" d="M117 397v705h336v-660q0 -84 43 -117.5t92 -33.5t92 33.5t43 117.5v660h336v-1102h-328v90q-47 -47 -116.5 -74.5t-143.5 -27.5t-135.5 23.5t-117.5 79.5q-101 101 -101 306zM219 1247v297h275v-297h-275zM682 1247v297h275v-297h-275z" />
<glyph unicode="&#xfd;" horiz-adv-x="1284" d="M147 0v1458h359v-252h219q233 0 365.5 -138t132.5 -329.5t-133.5 -331t-364.5 -139.5h-219v-268h-359zM506 590h203q72 0 113.5 44t41.5 103t-41.5 103.5t-113.5 44.5h-203v-295z" />
<glyph unicode="&#xfe;" d="M100 446v316h938v-316h-938z" />
<glyph unicode="&#xff;" horiz-adv-x="1052" d="M0 1102h352l187 -572l178 572h352l-457 -1233q-61 -170 -194 -217q-62 -21 -139 -21h-127v303h71q47 0 71.5 15.5t41.5 66.5l31 93zM157 1247v297h275v-297h-275zM620 1247v297h275v-297h-275z" />
<glyph unicode="&#x152;" horiz-adv-x="1949" d="M100 735q0 223 23.5 351t114 218.5t183.5 128t226 37.5t205 -65v53h991v-319h-633v-244h541v-320h-541v-256h633v-319h-991v53q-69 -65 -205.5 -65t-226.5 36.5t-180 127t-115 225.5t-25 358zM459 729q0 -184 12 -251.5t37 -99.5q54 -71 147.5 -71t132.5 51.5t51.5 119 t12.5 250.5t-12 252.5t-36 102.5q-51 68 -149 68q-92 0 -146 -67q-26 -33 -38 -102t-12 -253z" />
<glyph unicode="&#x153;" horiz-adv-x="1769" d="M88 552q0 165 24.5 254t89.5 158q138 150 345.5 150t335.5 -108q125 109 313 108q231 0 363.5 -148.5t132.5 -373.5v-150h-660q0 -72 52.5 -122t140.5 -50t133 20.5t96 71.5l201 -200q-90 -90 -185.5 -132t-242.5 -42q-227 0 -350 102q-125 -102 -314 -102 q-223 0 -359 146q-63 69 -89.5 161t-26.5 257zM424 552q0 -93 9 -146q19 -115 130 -115t130 113q9 53 9 146t-9 146q-20 115 -130 115q-111 0 -130 -113q-9 -53 -9 -146zM1032 666h328q0 46 -18 87q-40 85 -146 85q-107 0 -146 -85q-18 -38 -18 -87z" />
<glyph unicode="&#x178;" horiz-adv-x="1239" d="M0 1458h391l230 -524l227 524h391l-440 -864v-594h-359v594zM249 1599v297h275v-297h-275zM712 1599v297h275v-297h-275z" />
<glyph unicode="&#x2c6;" horiz-adv-x="1024" d="M104 1249l279 367h258l279 -367h-246l-162 170l-162 -170h-246z" />
<glyph unicode="&#x2dc;" horiz-adv-x="1024" d="M117 1436q68 68 125 98.5t115.5 30.5t94 -9.5t88 -40t96.5 -30.5t67.5 9t60.5 46l143 -141q-129 -129 -243 -129q-58 0 -93.5 9t-88 40t-97.5 31t-68.5 -9.5t-60.5 -46.5z" />
<glyph unicode="&#x2000;" horiz-adv-x="1056" />
<glyph unicode="&#x2001;" horiz-adv-x="2112" />
<glyph unicode="&#x2002;" horiz-adv-x="1056" />
<glyph unicode="&#x2003;" horiz-adv-x="2112" />
<glyph unicode="&#x2004;" horiz-adv-x="704" />
<glyph unicode="&#x2005;" horiz-adv-x="528" />
<glyph unicode="&#x2006;" horiz-adv-x="352" />
<glyph unicode="&#x2007;" horiz-adv-x="352" />
<glyph unicode="&#x2008;" horiz-adv-x="264" />
<glyph unicode="&#x2009;" horiz-adv-x="422" />
<glyph unicode="&#x200a;" horiz-adv-x="117" />
<glyph unicode="&#x2010;" horiz-adv-x="872" d="M100 446v316h672v-316h-672z" />
<glyph unicode="&#x2011;" horiz-adv-x="872" d="M100 446v316h672v-316h-672z" />
<glyph unicode="&#x2012;" horiz-adv-x="872" d="M100 446v316h672v-316h-672z" />
<glyph unicode="&#x2013;" d="M100 446v316h938v-316h-938z" />
<glyph unicode="&#x2014;" horiz-adv-x="2238" d="M100 451v323h2038v-323h-2038z" />
<glyph unicode="&#x2018;" horiz-adv-x="569" d="M117 1159v299l336 246v-545h-336z" />
<glyph unicode="&#x2019;" horiz-adv-x="569" d="M117 915v543h336v-301z" />
<glyph unicode="&#x201a;" horiz-adv-x="565" d="M117 -242v543h336v-301z" />
<glyph unicode="&#x201c;" horiz-adv-x="1046" d="M117 1159v299l334 246v-545h-334zM594 1159v299l336 246v-545h-336z" />
<glyph unicode="&#x201d;" horiz-adv-x="1046" d="M117 915v543h334v-301zM594 915v543h336v-301z" />
<glyph unicode="&#x201e;" horiz-adv-x="1052" d="M117 -242v543h334v-301zM594 -242v543h336v-301z" />
<glyph unicode="&#x2022;" horiz-adv-x="962" d="M147 684q0 139 97.5 236.5t236.5 97.5t236.5 -97.5t97.5 -236.5t-97.5 -236.5t-236.5 -97.5t-236.5 97.5t-97.5 236.5z" />
<glyph unicode="&#x2026;" horiz-adv-x="1841" d="M117 0v348h348v-348h-348zM745 0v348h349v-348h-349zM1376 0v348h348v-348h-348z" />
<glyph unicode="&#x202f;" horiz-adv-x="422" />
<glyph unicode="&#x2039;" horiz-adv-x="743" d="M61 573l560 553v-395l-162 -158l162 -159v-396z" />
<glyph unicode="&#x203a;" horiz-adv-x="743" d="M123 18v396l164 159l-164 158v395l559 -553z" />
<glyph unicode="&#x205f;" horiz-adv-x="528" />
<glyph unicode="&#x2122;" horiz-adv-x="1992" d="M104 1245v213h668v-213h-215v-661h-238v661h-215zM897 584v874h240l239 -430l240 430h239v-874h-239v448l-137 -268h-205l-137 268v-448h-240z" />
<glyph unicode="&#xe000;" horiz-adv-x="1105" d="M0 0v1106h1106v-1106h-1106z" />
<glyph unicode="&#xfb01;" horiz-adv-x="1282" d="M51 801v258h101v96q0 131 86 228.5t256 97.5h178v-283h-117q-68 0 -68 -68v-71h185v-258h-185v-801h-335v801h-101zM819 0v1059h336v-1059h-336zM819 1214v256h336v-256h-336z" />
<glyph unicode="&#xfb02;" horiz-adv-x="1380" d="M51 801v258h101v96q0 131 86 228.5t256 97.5h178v-283h-117q-68 0 -68 -68v-71h185v-258h-185v-801h-335v801h-101zM819 326v1132h336v-1108q0 -68 68 -67h116v-283h-178q-170 0 -256 97.5t-86 228.5z" />
</font>
</defs>
</svg>
