<?xml version="1.0" standalone="no"?>
<!DOCTYPE svg PUBLIC "-//W3C//DTD SVG 1.1//EN" "http://www.w3.org/Graphics/SVG/1.1/DTD/svg11.dtd" >
<svg xmlns="http://www.w3.org/2000/svg">
<metadata></metadata>
<defs>
<font id="DINRegular" horiz-adv-x="1069" >
<font-face units-per-em="2048" ascent="1638" descent="-410" />
<missing-glyph horiz-adv-x="509" />
<glyph horiz-adv-x="0" />
<glyph horiz-adv-x="2048" />
<glyph unicode="&#xd;" horiz-adv-x="509" />
<glyph unicode=" "  horiz-adv-x="509" />
<glyph unicode="&#x09;" horiz-adv-x="509" />
<glyph unicode="&#xa0;" horiz-adv-x="509" />
<glyph unicode="!" horiz-adv-x="647" d="M266 0h176v172h-176v-172zM270 1458l21 -1048h127l22 1048h-170z" />
<glyph unicode="&#x22;" horiz-adv-x="866" d="M180 1110h162v348h-162v-348zM524 1110h162v348h-162v-348z" />
<glyph unicode="#" horiz-adv-x="1337" d="M158 465h182l-74 -465h152l71 465h328l-74 -465h152l74 465h202v131h-182l47 289h197v135h-178l69 440h-149l-70 -440h-325l71 440h-153l-70 -440h-207v-135h189l-48 -289h-204v-131zM512 596l47 289h326l-47 -289h-326z" />
<glyph unicode="$" horiz-adv-x="1220" d="M86 180q96 -96 200.5 -141t250.5 -51v-221h122v225q206 12 325 122q122 113 122 287q0 219 -174 325q-54 33 -109 45.5t-106 21.5l-64 10v530q164 -10 287 -123l100 101q-86 76 -174 113.5t-207 43.5v183h-122v-183q-193 -16 -302.5 -125.5t-109.5 -282.5t113 -274 q111 -95 266 -110l41 -4v-543q-104 4 -187.5 40t-164.5 118zM278.5 1067q0.5 113 69 184.5t197.5 81.5v-516q-126 19 -201 80q-66 57 -65.5 170zM653 129v526q66 -10 120 -20t97 -48q80 -69 80 -189t-78.5 -189.5t-218.5 -79.5z" />
<glyph unicode="%" horiz-adv-x="1705" d="M133 981q0 -125 78 -199.5t198 -74.5t198.5 74.5t78.5 199.5v215q0 127 -79 202t-198.5 75t-197.5 -75t-78 -202v-215zM250 985v207q0 84 37 131t123 47q159 0 159 -178v-207q0 -176 -159 -176q-160 0 -160 176zM451 0h122l684 1458h-122zM1022 262q0 -127 78 -201.5 t197.5 -74.5t198.5 74.5t79 201.5v215q0 127 -79 202t-199 75t-197.5 -75t-77.5 -202v-215zM1139 266v207q0 84 36.5 131t122.5 47q160 0 160 -178v-207q0 -178 -160 -178q-86 0 -122.5 47t-36.5 131z" />
<glyph unicode="&#x26;" horiz-adv-x="1513" d="M158 412q0 -194 124 -308q126 -116 352.5 -116t414.5 172l131 -160h194l-223 268q131 156 135 447h-147q0 -171 -45 -267q-15 -34 -37 -67l-373 448q54 40 80 56q190 113 190 278q0 133 -90 219q-92 88 -227 88q-138 0 -231 -88q-91 -85 -91 -217q0 -120 103 -249 q28 -35 55 -68q-59 -41 -116.5 -83t-101.5 -93q-97 -112 -97 -260zM309 416q0 152 158 268q45 33 92 66l402 -484q-94 -84 -178.5 -112.5t-159.5 -28.5t-131 20.5t-97 59.5q-86 82 -86 211zM469 1178.5q0 62.5 46 110.5t121 48t124 -50t49 -118.5t-40 -110.5t-66.5 -60.5 t-39 -26.5t-32 -21.5t-31.5 -21.5q-72 88 -101.5 138t-29.5 112.5z" />
<glyph unicode="'" horiz-adv-x="522" d="M180 1110h162v348h-162v-348z" />
<glyph unicode="(" horiz-adv-x="610" d="M188 195q0 -133 43 -211q29 -51 64 -89t84 -88l100 101q-35 35 -63 64q-80 83 -80 235v1044q0 151 80 236q28 29 63 63l-100 101q-49 -49 -84 -87q-87 -95 -100 -194q-7 -53 -7 -106v-1069z" />
<glyph unicode=")" horiz-adv-x="610" d="M127 -88l104 -105q49 49 84 87q88 95 99 194q6 54 6 107v1069q0 53 -6 106q-11 98 -98 194q-35 38 -85 87l-104 -105l63 -64q60 -59 72 -141q6 -41 6 -90v-1044q0 -108 -24 -155.5t-53 -76t-64 -63.5z" />
<glyph unicode="*" horiz-adv-x="970" d="M137 967l60 -101l237 146l-8 -281h119l-8 281l239 -146l58 101l-246 133l246 135l-58 98l-239 -145l8 280h-119l8 -280l-237 145l-60 -98l246 -135z" />
<glyph unicode="+" d="M106 479h361v-360h137v360h359v137h-359v357h-137v-357h-361v-137z" />
<glyph unicode="," horiz-adv-x="540" d="M180 180v-475l180 162v313h-180z" />
<glyph unicode="-" horiz-adv-x="872" d="M156 483h561v138h-561v-138z" />
<glyph unicode="." horiz-adv-x="552" d="M180 0h193v193h-193v-193z" />
<glyph unicode="/" horiz-adv-x="727" d="M0 -152h145l584 1762h-145z" />
<glyph unicode="0" d="M135 389q0 -178 115 -291q111 -110 285 -110q173 0 284 110q115 113 115 291v680q0 179 -115 292q-111 109 -284 109q-174 0 -285 -109q-115 -113 -115 -292v-680zM283 397v664q0 121 64.5 199.5t187.5 78.5t187 -78.5t64 -199.5v-664q0 -121 -64.5 -199.5t-186.5 -78.5 q-123 0 -187.5 78.5t-64.5 199.5z" />
<glyph unicode="1" d="M256 1055l272 239v-1294h148v1458h-148l-272 -235v-168z" />
<glyph unicode="2" d="M139 0h805v131h-627l510 651q59 78 88 142.5t29 153.5t-28.5 162t-81.5 124q-112 106 -291 106q-181 0 -292 -111q-110 -110 -110 -284h148q0 131 75 203q64 61 182 61t184.5 -71.5t66.5 -190.5q0 -109 -82 -215l-576 -731v-131z" />
<glyph unicode="3" d="M86 371q8 -186 133 -292q110 -93 295 -93q188 0 303 105q125 114 125 306q0 272 -223 357q197 88 196 323q0 178 -111 287t-290 109q-168 0 -282 -100q-114 -101 -128 -275h148q10 113 77.5 178t179 65t185.5 -67.5t74 -194.5q0 -268 -260 -268h-31v-129h31 q150 0 218.5 -75t68.5 -209t-81 -207.5t-200 -73.5q-181 0 -252 138q-24 48 -29 116h-147z" />
<glyph unicode="4" d="M82 231h582v-231h145v231h178v134h-178v413h-145v-413h-424l526 1093h-158l-526 -1093v-134z" />
<glyph unicode="5" d="M143 344q12 -159 103 -254q104 -104 293 -104q182 0 290 108q78 78 97.5 177t19.5 180t-4 133.5t-16 103.5q-26 106 -101 184q-93 93 -257.5 93t-256.5 -101v463h604v131h-737v-766h133q23 66 84.5 105t149.5 39t136 -31t73 -80q45 -86 45 -244q0 -156 -35 -233 q-16 -35 -45 -64q-68 -68 -183 -68q-216 1 -245 228h-148z" />
<glyph unicode="6" d="M133 408q0 -190 109 -306q109 -114 297 -114q182 0 293 122q110 120 110 309q0 91 -27.5 167t-76.5 131q-106 117 -275 117q-86 0 -153 -31l325 655h-151l-359 -723q-92 -180 -92 -327zM281 414q0 135 69.5 215t186.5 80q120 0 192 -87q66 -80 66 -211.5t-71 -211.5 t-187 -80q-117 0 -186.5 80t-69.5 215z" />
<glyph unicode="7" d="M156 1098h145v229h508l-506 -1327h156l506 1327v131h-809v-360z" />
<glyph unicode="8" d="M104 419.5q0 -110.5 33 -186t91 -131.5q121 -114 307 -114q185 0 305 114q125 119 125 299q0 228 -217 355q188 107 188 323q0 174 -114 282q-114 109 -287 109q-175 0 -288 -109q-114 -110 -114 -282q0 -214 191 -323q-92 -53 -156 -139.5t-64 -197zM252 403 q0 120 81 203q80 82 202 82q121 0 201 -82q81 -83 81 -203q0 -119 -81 -202q-80 -82 -201 -82q-122 0 -202 82q-81 83 -81 202zM281 1076.5q0 115.5 70.5 189t183.5 73.5t183 -73.5t70 -189.5t-70.5 -187.5t-182.5 -71.5q-113 0 -183.5 72t-70.5 187.5z" />
<glyph unicode="9" d="M127 1038q0 -182 103 -296q103 -117 274 -117q88 0 155 30l-327 -655h153l359 723q92 180 92 336q0 181 -110 297q-108 114 -296 114q-182 0 -294 -122q-109 -120 -109 -310zM274 1048.5q0 130.5 70 210.5t186 80q117 0 187.5 -80t70.5 -215t-70.5 -214.5t-187.5 -79.5 q-121 0 -191 87q-65 81 -65 211.5z" />
<glyph unicode=":" horiz-adv-x="608" d="M236 0h192v193h-192v-193zM236 616h192v193h-192v-193z" />
<glyph unicode=";" horiz-adv-x="608" d="M236 616h192v193h-192v-193zM240 180v-475l180 162v313h-180z" />
<glyph unicode="&#x3c;" horiz-adv-x="2103" d="M113 551l817 -817h192l-747 745h1616v144h-1616l747 745h-192z" />
<glyph unicode="=" d="M106 309h857v135h-857v-135zM106 655h857v138h-857v-138z" />
<glyph unicode="&#x3e;" horiz-adv-x="2103" d="M113 479h1616l-748 -745h193l817 817l-817 817h-193l748 -745h-1616v-144z" />
<glyph unicode="?" horiz-adv-x="1017" d="M156 1096h147q0 101 63 170q67 73 173 73t171.5 -68.5t65.5 -172.5q0 -53 -19.5 -92t-47.5 -82l-166 -240q-64 -91 -64 -192v-82h148v79q0 64 37 119l167 242q41 59 67 117.5t26 135.5t-30 145.5t-81 117.5q-108 104 -272 104q-163 0 -276 -109q-109 -105 -109 -265z M465 0h176v172h-176v-172z" />
<glyph unicode="@" horiz-adv-x="1460" d="M147 328q0 -136 26 -191t56.5 -88t77.5 -67l101 100q-70 54 -89 92q-28 57 -28 156v690q0 86 17.5 136t63.5 96q83 83 224 83h266q146 0 228 -82q45 -47 62 -99t17 -134v-160q-104 129 -274 129q-90 0 -164 -33.5t-120 -95t-64.5 -149.5t-18.5 -225.5t18.5 -224.5 t68.5 -148q104 -127 282 -127q94 0 158.5 30.5t115.5 96.5v-113l142 -2v1018q0 213 -116 329t-316 115h-303q-203 0 -317 -115.5t-114 -328.5v-688zM674 487q0 175 34.5 243.5t84 100t129.5 31.5q146 0 204 -116q43 -84 43 -259q0 -174 -34.5 -242.5t-84 -100t-128.5 -31.5 q-147 0 -206 115q-42 85 -42 259z" />
<glyph unicode="A" horiz-adv-x="1251" d="M25 0h165l117 330h637l117 -330h166l-535 1458h-131zM354 465l275 770l270 -770h-545z" />
<glyph unicode="B" horiz-adv-x="1368" d="M211 0h567q199 0 314 102q120 108 120 318q0 114 -66.5 202.5t-170.5 127.5q92 35 153.5 118.5t61.5 188t-32 176.5t-88 122q-115 103 -310 103h-549v-1458zM367 139v535h397q135 0 214 -71.5t79 -194.5t-79 -196t-214 -73h-397zM367 813v506h381q197 0 264 -139 q22 -47 22 -113q0 -187 -173 -239q-52 -15 -113 -15h-381z" />
<glyph unicode="C" horiz-adv-x="1304" d="M156 729q0 -270 15 -349q28 -147 112 -231q161 -161 383 -161q195 0 332 114t173 320h-155q-29 -135 -121 -215t-229 -80q-154 0 -252 102q-67 67 -86 171q-17 89 -17 329t13.5 312.5t34 112.5t61.5 82t107.5 68.5t138.5 26.5q137 0 227 -80t119 -215h159 q-36 206 -173 320t-332 114q-222 0 -373 -151q-94 -94 -120 -231q-17 -89 -17 -359z" />
<glyph unicode="D" horiz-adv-x="1378" d="M211 0h500q233 0 368 135q139 139 143 451q1 83 1 159q0 222 -13 303q-49 287 -291 376q-94 34 -208 34h-500v-1458zM367 139v1180h317q184 0 287 -107q91 -96 95 -332q1 -67 1 -135q0 -193 -9 -269q-19 -158 -81.5 -223.5t-134.5 -89.5t-158 -24h-317z" />
<glyph unicode="E" horiz-adv-x="1228" d="M211 0h905v139h-749v527h639v139h-639v514h749v139h-905v-1458z" />
<glyph unicode="F" horiz-adv-x="1187" d="M211 0h156v643h639v139h-639v537h749v139h-905v-1458z" />
<glyph unicode="G" horiz-adv-x="1331" d="M156 729q0 -270 15 -349q28 -147 112 -231q161 -161 383 -161q233 0 389 168q68 72 96.5 160.5t28.5 215.5v232h-514v-137h358v-111q0 -167 -82 -264q-105 -125 -276 -125q-154 0 -252 102q-67 67 -86 171q-17 89 -17 329t13.5 311.5t34 111.5t61.5 82t107.5 69.5 t138.5 27.5q137 0 230 -78.5t124 -218.5h156q-32 195 -166 314q-137 122 -351 122t-366 -151q-94 -94 -120 -231q-17 -89 -17 -359z" />
<glyph unicode="H" horiz-adv-x="1425" d="M211 0h156v666h692v-666h155v1458h-155v-653h-692v653h-156v-1458z" />
<glyph unicode="I" horiz-adv-x="577" d="M211 0h156v1458h-156v-1458z" />
<glyph unicode="J" horiz-adv-x="1026" d="M47 119q131 -131 334 -131q201 0 327 122q128 124 128 332v1016h-156v-995q0 -162 -78 -249t-221 -87q-90 0 -140.5 27.5t-88.5 68.5z" />
<glyph unicode="K" horiz-adv-x="1331" d="M211 0h156v408l307 368l444 -776h185l-525 895l459 563h-190l-680 -837v837h-156v-1458z" />
<glyph unicode="L" horiz-adv-x="1173" d="M211 0h901v139h-745v1319h-156v-1458z" />
<glyph unicode="M" horiz-adv-x="1671" d="M211 0h156v1108l405 -879h133l400 879v-1108h155v1458h-155l-463 -1034l-475 1034h-156v-1458z" />
<glyph unicode="N" horiz-adv-x="1499" d="M211 0h156v1169l774 -1169h147v1458h-155v-1165l-775 1165h-147v-1458z" />
<glyph unicode="O" horiz-adv-x="1331" d="M156 729q0 -270 15 -349q28 -147 122 -241q151 -151 370 -151h3q221 0 372 151q94 94 120 231q18 94 18 359t-15.5 346.5t-43 137t-79.5 106.5q-151 151 -369 151h-3q-221 0 -373 -151q-94 -94 -120 -231q-17 -89 -17 -359zM311 729q0 240 13.5 311.5t34 111.5t61.5 82 t107.5 69.5t138.5 27.5q150 0 252 -104q66 -66 86 -171q16 -87 16 -327t-13.5 -311.5t-34 -111.5t-61 -82t-107.5 -69.5t-138 -27.5q-152 0 -252 104q-67 67 -86 171q-17 87 -17 327z" />
<glyph unicode="P" horiz-adv-x="1290" d="M211 0h156v600h387q199 0 326 117q124 115 124 313q0 194 -124 312q-122 116 -326 116h-543v-1458zM367 739v580h372q137 0 223.5 -72t86.5 -217t-86 -218t-224 -73h-372z" />
<glyph unicode="Q" horiz-adv-x="1329" d="M156 729q0 -270 15 -349q28 -147 122 -241q151 -151 370 -151h3q180 0 313 102l162 -162l94 95l-160 159q69 88 87 216q14 101 14 274.5t-2.5 260.5t-15.5 155q-26 139 -120 231q-151 151 -369 151h-3q-221 0 -373 -151q-94 -94 -120 -231q-17 -89 -17 -359zM311 729 q0 240 13.5 311.5t34 111.5t61.5 82t107.5 69.5t138.5 27.5q150 0 252 -104q66 -66 86 -171q16 -87 16 -251q0 -264 -11 -355.5t-48 -152.5l-179 178l-94 -94l184 -184q-92 -70 -206 -70q-152 0 -252 104q-67 67 -86 171q-17 87 -17 327z" />
<glyph unicode="R" horiz-adv-x="1343" d="M211 0h156v647h350l332 -647h182l-346 662q141 29 229 130t88 261q0 187 -120 297q-118 108 -312 108h-559v-1458zM367 784v535h389q129 0 210 -66.5t81 -201.5t-81 -201t-210 -66h-389z" />
<glyph unicode="S" horiz-adv-x="1204" d="M86 180q102 -102 219 -147t255.5 -45t231.5 28.5t160 81.5q138 112 138 303q0 220 -172 325q-54 32 -110 45t-108 22l-159 24q-127 21 -195 79q-68 57 -68 173q0 119 80 193t212.5 73.5t210 -32t145.5 -93.5l100 101q-94 84 -194.5 121.5t-224.5 37.5t-210 -29.5 t-147 -82.5q-125 -110 -125 -291.5t102.5 -272t276.5 -118.5l170 -27q80 -12 118 -25q142 -52 142 -227q0 -129 -92 -199.5t-233.5 -70.5t-233.5 35t-182 125z" />
<glyph unicode="T" horiz-adv-x="1122" d="M61 1319h422v-1319h156v1319h422v139h-1000v-139z" />
<glyph unicode="U" horiz-adv-x="1398" d="M190 481q0 -217 144 -357q140 -136 364 -136q222 0 366 136q144 137 144 357v977h-155v-964q0 -167 -98 -267t-257 -100t-257 100q-95 97 -95 267v964h-156v-977z" />
<glyph unicode="V" horiz-adv-x="1118" d="M16 1458l480 -1458h127l479 1458h-164l-379 -1179l-379 1179h-164z" />
<glyph unicode="W" horiz-adv-x="1748" d="M33 1458l373 -1458h145l323 1167l324 -1167h145l373 1458h-166l-284 -1175l-322 1175h-139l-322 -1175l-284 1175h-166z" />
<glyph unicode="X" horiz-adv-x="1128" d="M31 0h176l356 612l355 -612h180l-451 748l420 710h-180l-324 -575l-323 575h-181l418 -710z" />
<glyph unicode="Y" horiz-adv-x="1052" d="M16 1458l435 -856v-602h155v602l430 856h-168l-340 -698l-344 698h-168z" />
<glyph unicode="Z" horiz-adv-x="1138" d="M117 0h905v139h-735l735 1188v131h-877v-139h701l-729 -1172v-147z" />
<glyph unicode="[" horiz-adv-x="641" d="M188 -152h363v132h-215v1499h215v131h-363v-1762z" />
<glyph unicode="\" horiz-adv-x="727" d="M0 1604l582 -1756h145l-582 1756h-145z" />
<glyph unicode="]" horiz-adv-x="641" d="M90 -25v-127h363v1762h-363v-127h221v-1508h-221z" />
<glyph unicode="^" horiz-adv-x="1099" d="M147 846h152l252 467l250 -467h151l-334 624h-135z" />
<glyph unicode="_" horiz-adv-x="1099" d="M0 -233v-105h1100v105h-1100z" />
<glyph unicode="`" horiz-adv-x="1024" d="M256 1530l221 -313h135l-180 313h-176z" />
<glyph unicode="a" horiz-adv-x="1077" d="M104 285q0 -129 76 -205q47 -49 113.5 -70.5t169 -21.5t167 23.5t126.5 84.5v-96h147v684q0 336 -403 336q-123 0 -206 -31t-151 -119l101 -92q45 63 100 89t174 26q238 0 238 -221v-97h-303q-170 0 -259.5 -78.5t-89.5 -211.5zM248 287q0 178 225 178h283v-109 q0 -125 -49 -173t-105.5 -58t-150 -10t-148.5 42t-55 130z" />
<glyph unicode="b" horiz-adv-x="1116" d="M184 0h148v121q61 -80 130.5 -106.5t150.5 -26.5q227 0 311 176q45 93 53 187t8 153q0 305 -123 428q-88 88 -246 88q-84 0 -153.5 -25.5t-130.5 -103.5v567h-148v-1458zM332 504q0 177 44 266q60 119 210 119q149 0 208 -119q44 -87 44 -266t-44 -266 q-58 -119 -208 -119q-214 0 -245 241q-9 70 -9 144z" />
<glyph unicode="c" horiz-adv-x="1003" d="M129 504q0 -251 128 -388q119 -128 318 -128q104 0 179 32.5t153 116.5l-100 96q-57 -63 -108.5 -88.5t-124.5 -25.5q-150 0 -232 114q-66 92 -66 271q0 275 166 356q60 29 132.5 29t124 -24.5t108.5 -88.5l100 94q-78 84 -152.5 117t-175 33t-181.5 -33t-141 -97 q-128 -138 -128 -386z" />
<glyph unicode="d" horiz-adv-x="1116" d="M131 504q0 -305 123 -428q88 -88 246 -88q84 0 154.5 26.5t131.5 106.5v-121h146v1458h-148v-567q-61 78 -130.5 103.5t-150.5 25.5q-227 0 -311 -176q-45 -93 -53 -187t-8 -153zM279 504q0 177 45 266q59 119 208 119q150 0 210 -119q42 -85 42 -266t-34.5 -250.5 t-85 -102t-132.5 -32.5q-213 0 -244 241q-9 70 -9 144z" />
<glyph unicode="e" horiz-adv-x="1085" d="M129 504q0 -257 121 -392q112 -124 319 -124q124 0 189 30q100 45 180 125l-100 88q-59 -59 -117.5 -86.5t-147.5 -27.5q-145 0 -221 91t-76 257h680v67q0 225 -108.5 356.5t-303 131.5t-305 -135t-110.5 -381zM276 575q3 97 31.5 167.5t92 111.5t143.5 41t143 -41 q74 -47 106 -148q11 -37 17 -131h-533z" />
<glyph unicode="f" horiz-adv-x="643" d="M88 889h129v-889h148v889h215v112h-215v187q0 147 135 147h80v127h-107q-122 0 -193 -80q-63 -71 -63 -190v-191h-129v-112z" />
<glyph unicode="g" horiz-adv-x="1112" d="M131 512q0 -123 23.5 -233.5t99.5 -186.5q90 -90 244 -90q82 0 151.5 26.5t130.5 104.5v-158q0 -214 -150 -285q-52 -24 -110.5 -24t-91.5 6t-60 20q-51 25 -106 75l-96 -95q115 -109 240 -128q45 -7 122.5 -7t156.5 33t132 90q111 119 111 309v1039h-146v-119 q-61 80 -129.5 105.5t-149.5 25.5q-161 0 -243 -82t-105.5 -192.5t-23.5 -233.5zM279 512q0 176 34.5 243.5t85 100.5t131.5 33q147 0 208 -118q42 -83 42 -260q0 -71 -8 -138.5t-34 -119.5q-61 -118 -208 -118q-148 0 -208 118q-43 83 -43 259z" />
<glyph unicode="h" horiz-adv-x="1150" d="M184 0h148v623q0 131 68.5 198.5t183.5 67.5t180 -66.5t65 -199.5v-623h148v647q0 172 -95.5 272.5t-268.5 100.5t-281 -123v561h-148v-1458z" />
<glyph unicode="i" horiz-adv-x="518" d="M176 1294h166v166h-166v-166zM184 0h148v1008h-148v-1008z" />
<glyph unicode="j" horiz-adv-x="518" d="M-31 -324v-129h107q189 0 240 165q16 49 16 106v1183h-148v-1177q0 -74 -28.5 -111t-106.5 -37h-80zM176 1294h166v166h-166v-166z" />
<glyph unicode="k" horiz-adv-x="1097" d="M184 0h148v291l196 225l320 -516h182l-401 623l342 385h-185l-454 -525v975h-148v-1458z" />
<glyph unicode="l" horiz-adv-x="608" d="M180 268q0 -115 61.5 -191.5t194.5 -76.5h107v127h-80q-78 0 -106.5 37t-28.5 110v1184h-148v-1190z" />
<glyph unicode="m" horiz-adv-x="1800" d="M184 0h148v621q0 133 68.5 200.5t183.5 67.5t181 -66.5t66 -201.5v-621h148v637q0 121 70.5 186.5t183.5 65.5t179.5 -66.5t66.5 -201.5v-621h147v645q0 176 -108 281q-98 94 -261 94q-213 0 -331 -168q-94 168 -310 168q-177 0 -284 -123v111h-148v-1008z" />
<glyph unicode="n" horiz-adv-x="1150" d="M184 0h148v621q0 133 67.5 200.5t182.5 67.5t181 -66.5t66 -201.5v-621h148v645q0 178 -99.5 276.5t-269 98.5t-276.5 -123v111h-148v-1008z" />
<glyph unicode="o" horiz-adv-x="1085" d="M131 504q0 -279 123 -402q114 -114 289 -114q174 0 288 114q76 78 99.5 181.5t23.5 220.5t-23.5 220t-88.5 168q-125 128 -299 128t-289 -115q-123 -123 -123 -401zM279 504q0 227 77.5 306t187.5 79t183 -74q71 -76 78 -225q2 -43 2 -86q0 -234 -77 -309.5t-186.5 -75.5 t-183.5 74q-72 67 -79 225q-2 43 -2 86z" />
<glyph unicode="p" horiz-adv-x="1116" d="M184 -451h148v570q61 -78 130.5 -104.5t150.5 -26.5q227 0 311 176q45 93 53 187t8 153q0 305 -123 428q-88 88 -246 88q-84 0 -153.5 -25.5t-130.5 -105.5v119h-148v-1459zM332 504q0 177 44 266q60 119 210 119q149 0 208 -119q44 -87 44 -266t-44 -266 q-58 -119 -208 -119q-214 0 -245 241q-9 70 -9 144z" />
<glyph unicode="q" horiz-adv-x="1116" d="M131 504q0 -305 123 -428q88 -88 246 -88q84 0 153.5 26.5t130.5 104.5v-570h148v1459h-146v-119q-61 80 -131.5 105.5t-151.5 25.5q-227 0 -311 -176q-45 -93 -53 -187t-8 -153zM279 504q0 177 45 266q59 119 208 119q150 0 210 -119q42 -85 42 -266t-34.5 -250.5 t-85 -102t-132.5 -32.5q-213 0 -244 241q-9 70 -9 144z" />
<glyph unicode="r" horiz-adv-x="862" d="M184 0h148v618q0 114 66 193q64 78 175 78q59 0 96.5 -16.5t78.5 -57.5l108 111q-94 94 -242 94q-88 0 -164.5 -36t-117.5 -99v123h-148v-1008z" />
<glyph unicode="s" horiz-adv-x="1015" d="M88 133q84 -80 184.5 -112.5t211 -32.5t185 20.5t129.5 60.5q113 83 113 226q0 197 -175 249q-56 17 -122 23l-161 15q-96 8 -136.5 45t-40.5 108.5t57.5 115.5t168.5 44q165 0 268 -80l96 96q-135 109 -362 109q-164 0 -266 -79q-105 -80 -105 -210.5t77 -197t224 -78.5 l166 -15q168 -15 168 -147q0 -90 -71.5 -134t-196.5 -44q-204 0 -314 116z" />
<glyph unicode="t" horiz-adv-x="679" d="M82 889h127v-619q0 -114 65 -190q68 -80 193 -80h104v127h-77q-138 0 -138 147v615h215v112h-215v316h-147v-316h-127v-112z" />
<glyph unicode="u" horiz-adv-x="1150" d="M174 365q0 -181 98 -279t270 -98t279 125v-113h146v1008h-148v-621q0 -133 -68.5 -200.5t-183.5 -67.5t-180 66.5t-65 201.5v621h-148v-643z" />
<glyph unicode="v" horiz-adv-x="915" d="M23 1008l368 -1008h131l371 1008h-160l-276 -809l-275 809h-159z" />
<glyph unicode="w" horiz-adv-x="1482" d="M23 1008l319 -1008h137l262 782l265 -782h137l317 1008h-160l-229 -809l-266 809h-127l-264 -809l-232 809h-159z" />
<glyph unicode="x" horiz-adv-x="978" d="M68 0h178l246 391l241 -391h178l-342 514l328 494h-178l-227 -373l-232 373h-178l328 -494z" />
<glyph unicode="y" horiz-adv-x="915" d="M23 1008l362 -988l-72 -196q-25 -70 -57.5 -97.5t-108.5 -27.5h-45v-131h64q124 0 196 70q43 39 72 118l459 1252h-160l-274 -809l-277 809h-159z" />
<glyph unicode="z" horiz-adv-x="940" d="M102 0h732v131h-564l564 752v125h-701v-131h531l-562 -750v-127z" />
<glyph unicode="{" horiz-adv-x="724" d="M98 664h54q53 0 91 -37t38 -123v-391q0 -80 13 -124t47 -78q63 -63 208 -63h76v132h-47q-95 0 -121 26q-29 29 -29 133v385q0 88 -35 132t-94 73q59 29 94 73t35 132v385q0 106 29 133q27 27 121 27h47v131h-76q-213 0 -255 -141q-13 -44 -13 -123v-392q0 -117 -77 -149 q-24 -10 -52 -10h-54v-131z" />
<glyph unicode="|" horiz-adv-x="667" d="M260 -152h148v1762h-148v-1762z" />
<glyph unicode="}" horiz-adv-x="724" d="M98 -20v-132h78q213 0 255 141q13 44 13 124v391q0 116 77 150q24 10 52 10h52v131h-52q-54 0 -92 36q-37 37 -37 123v392q0 80 -13 123.5t-47 77.5q-63 63 -208 63h-78v-131h49q92 0 119 -27q31 -31 31 -133v-385q0 -88 35 -132t94 -73q-59 -29 -94 -73t-35 -132v-385 q0 -102 -31 -133q-16 -16 -40.5 -21t-78.5 -5h-49z" />
<glyph unicode="~" horiz-adv-x="1103" d="M100 543l90 -92q80 80 132 89q18 3 50 3q45 0 127 -38t134.5 -56.5t96.5 -18.5t74 5t60 21q56 29 140 113l-93 93q-82 -82 -133 -90q-18 -3 -49 -3q-44 0 -126 38t-133.5 56.5t-95.5 18.5t-74 -6t-60 -22q-61 -32 -140 -111z" />
<glyph unicode="&#xa1;" horiz-adv-x="647" d="M203 836h176v172h-176v-172zM207 -451h170l-23 1049h-127z" />
<glyph unicode="&#xa2;" horiz-adv-x="1019" d="M129 750q0 -223 100.5 -354.5t270.5 -155.5v-240h121v236q92 6 158.5 39.5t138.5 111.5l-101 94q-51 -57 -97 -82.5t-108 -29.5v761q61 -4 107.5 -29.5t97.5 -82.5l101 94q-72 78 -138.5 111.5t-158.5 40.5v194h-121v-198q-170 -25 -270.5 -156t-100.5 -354zM276 750 q0 175 65.5 266.5t166.5 109.5v-753q-100 18 -164 106q-68 95 -68 271z" />
<glyph unicode="&#xa3;" horiz-adv-x="1122" d="M96 676h129v-676h791v139h-633v537h299v110h-299v209q0 162 78 249t221 87q86 0 126 -21q52 -26 101 -75l107 104q-131 131 -334 131t-328 -122q-129 -124 -129 -332v-230h-129v-110z" />
<glyph unicode="&#xa4;" horiz-adv-x="1351" d="M160 133l94 -94l152 151q121 -90 270 -90q144 0 268 90l154 -151l94 94l-152 152q90 121 90 270t-90 270l152 150l-94 94l-154 -149q-118 88 -268 88q-152 0 -270 -88l-152 149l-94 -94l151 -150q-90 -121 -90 -270t90 -270zM356 555q0 130 95 225q92 92 225 92t225 -92 t92 -225t-92 -225q-94 -94 -225 -94t-225 94q-95 95 -95 225z" />
<glyph unicode="&#xa5;" horiz-adv-x="1052" d="M16 1458l322 -637h-205v-110h262l54 -109v-106h-316v-113h316v-383h157v383h314v113h-314v106l53 109h261v110h-205l321 637h-166l-342 -698l-344 698h-168z" />
<glyph unicode="&#xa6;" horiz-adv-x="686" d="M260 -152h148v717h-148v-717zM260 893h148v717h-148v-717z" />
<glyph unicode="&#xa7;" horiz-adv-x="1140" d="M178 516q0 -141 73 -238.5t208 -136.5l159 -45q86 -25 133.5 -81t47.5 -144t-61.5 -143.5t-166.5 -55.5q-104 0 -165.5 49.5t-71.5 145.5h-150q8 -155 122 -247q103 -83 265 -83q163 0 267 95q110 100 110 257q0 113 -55 188t-143 107q141 69 194 220q19 53 19 116 q0 139 -73 237.5t-208 137.5l-160 45q-172 51 -172 197q0 100 58.5 151t162.5 51q209 0 226 -190h147q-8 150 -110 235q-104 86 -263 86q-160 0 -264 -93t-104 -242q0 -113 51 -177.5t139 -105.5q-143 -70 -197 -220q-18 -52 -18 -116zM328 517q0 115 67 190q68 74 173 73.5 t180 -73.5q39 -39 52 -84.5t13 -108.5q0 -108 -65 -184q-68 -74 -177 -74q-160 0 -224 152q-19 45 -19 109z" />
<glyph unicode="&#xa8;" horiz-adv-x="1024" d="M221 1233h148v182h-148v-182zM655 1233h148v182h-148v-182z" />
<glyph unicode="&#xa9;" horiz-adv-x="1804" d="M160 729q0 -154 58 -289t158.5 -235.5t236 -158.5t288.5 -58q154 0 289 58t235.5 158.5t158.5 235.5t58 289t-58 289t-158.5 235.5t-235.5 158.5t-289 58t-289 -58t-235.5 -158.5t-158.5 -235.5t-58 -289zM281 729q0 260 181 445q183 186 439 186q129 0 242.5 -50 t197.5 -136.5t133.5 -201t49.5 -243.5t-49.5 -243.5t-133.5 -200.5t-197.5 -136.5t-242.5 -50.5q-254 0 -439 187q-181 183 -181 444zM547 729q0 -186 93 -297q100 -119 271 -119q86 0 148 27t121 80l-74 74q-51 -45 -94 -61.5t-107 -16.5t-112 24.5t-77 67.5 q-54 82 -54 221q0 220 132 289q48 26 111 26t106.5 -17t94.5 -62l74 73q-63 55 -123 82t-148 27t-155.5 -32t-113.5 -87q-93 -111 -93 -299z" />
<glyph unicode="&#xaa;" horiz-adv-x="919" d="M115 884q0 -101 61 -167q39 -39 90 -56.5t132 -17.5t132.5 18.5t98.5 65.5v-74h119v543q0 270 -318 270q-98 0 -164.5 -25.5t-122.5 -97.5l84 -75q37 51 81 70.5t138 19.5q181 0 181 -172v-74h-236q-135 0 -205.5 -63.5t-70.5 -164.5zM236 885q0 135 172 135h219v-82 q0 -100 -38 -136t-82 -44t-115 -8q-156 0 -156 135z" />
<glyph unicode="&#xab;" horiz-adv-x="1134" d="M82 549l430 -430v182l-246 248l246 246v184zM545 549l430 -430v182l-248 248l248 246v184z" />
<glyph unicode="&#xac;" d="M104 492h723v-281h138v418h-861v-137z" />
<glyph unicode="&#xad;" horiz-adv-x="872" d="M156 483h561v138h-561v-138z" />
<glyph unicode="&#xae;" horiz-adv-x="1804" d="M160 729q0 -154 58 -289t158.5 -235.5t236 -158.5t288.5 -58q154 0 289 58t235.5 158.5t158.5 235.5t58 289t-58 289t-158.5 235.5t-235.5 158.5t-289 58t-289 -58t-235.5 -158.5t-158.5 -235.5t-58 -289zM279 729q0 261 182 447q84 86 197.5 136t242.5 50t242.5 -50 t198.5 -136t134.5 -201t49.5 -246q0 -260 -184 -446q-85 -86 -198.5 -136.5t-242.5 -50.5t-242.5 50.5t-197.5 136.5q-182 186 -182 446zM659 324h113v331h123l186 -331h131l-194 346q76 23 125 78t49 125.5t-20.5 115.5t-55.5 78q-74 70 -180 70h-277v-813zM772 752v284 h152q68 0 110.5 -41t42.5 -102t-43 -101t-110 -40h-152z" />
<glyph unicode="&#xaf;" horiz-adv-x="1024" d="M203 1257h618v117h-618v-117z" />
<glyph unicode="&#xb0;" horiz-adv-x="948" d="M137 1141q0 -142 99 -238q102 -98 239 -98q140 0 238 98t98 238q0 139 -98 237q-99 99 -238 99q-136 0 -239 -99q-99 -96 -99 -237zM262 1141q0 90 60 155q59 62 151 62q91 0 151 -62q62 -64 62 -156q0 -46 -16.5 -85t-43.5 -69q-57 -62 -151 -62q-93 0 -151 62 q-62 65 -62 155z" />
<glyph unicode="&#xb1;" d="M106 0h857v137h-857v-137zM106 592h361v-363h137v363h359v137h-359v358h-137v-358h-361v-137z" />
<glyph unicode="&#xb2;" horiz-adv-x="700" d="M98 584h504v106h-362l282 344q41 49 60.5 90t19.5 99q0 113 -70.5 178t-181.5 65t-181.5 -66.5t-70.5 -176.5h119q0 76 40 106.5t98 30.5t93 -38t35 -86t-11 -74.5t-36 -57.5l-338 -414v-106z" />
<glyph unicode="&#xb3;" horiz-adv-x="729" d="M98 817q4 -120 84 -185q73 -59 185 -59q114 0 187 65q77 68 77 191q0 154 -125 205q110 52 110 189q0 111 -70.5 177t-177.5 66t-179 -62.5t-78 -172.5h116q4 59 41 94t94.5 35t97.5 -35t40 -101q0 -143 -140 -143h-18v-102h18q78 0 116 -40t38 -111t-42 -109.5 t-102 -38.5t-104.5 32.5t-48.5 104.5h-119z" />
<glyph unicode="&#xb4;" horiz-adv-x="1024" d="M412 1217h135l221 313h-176z" />
<glyph unicode="&#xb6;" horiz-adv-x="1234" d="M86 1061q0 -157 110 -273q113 -120 293 -120v-1119h148v1770h240v-1770h147v1909h-494q-202 0 -328 -116q-116 -109 -116 -281z" />
<glyph unicode="&#xb7;" horiz-adv-x="552" d="M180 457h193v192h-193v-192z" />
<glyph unicode="&#xb8;" horiz-adv-x="1024" d="M358 -442h162l121 305h-137z" />
<glyph unicode="&#xb9;" horiz-adv-x="534" d="M88 1178l170 149v-743h117v874h-117l-170 -145v-135z" />
<glyph unicode="&#xba;" horiz-adv-x="931" d="M137 1054q0 -93 18.5 -174t70.5 -134q99 -101 239 -101q139 0 229 90q61 63 80 144.5t19 174.5t-18.5 175t-70.5 134q-102 103 -239 103q-139 0 -229 -92q-61 -63 -80 -145t-19 -175zM260 1055q0 66 9.5 133t59.5 117t136 51q86 0 136 -50.5t60.5 -117.5t10.5 -133 t-10.5 -132.5t-46.5 -102.5q-66 -66 -150 -66q-86 0 -136 51t-59.5 117.5t-9.5 132.5z" />
<glyph unicode="&#xbb;" horiz-adv-x="1134" d="M160 119l430 430l-430 430v-184l248 -246l-248 -248v-182zM623 119l430 430l-430 430v-184l245 -246l-245 -248v-182z" />
<glyph unicode="&#xbc;" horiz-adv-x="1591" d="M88 1178l170 149v-743h117v874h-117l-170 -145v-135zM354 0h123l682 1458h-123zM946 131h352v-131h115v131h96v109h-96v215h-115v-215h-223l307 634h-127l-309 -634v-109z" />
<glyph unicode="&#xbd;" horiz-adv-x="1617" d="M88 1178l170 149v-743h117v874h-117l-170 -145v-135zM330 0h123l682 1458h-123zM1016 0h504v106h-361l281 345q41 49 60.5 90t19.5 98q0 113 -71 178.5t-181 65.5q-111 0 -181.5 -66.5t-70.5 -177.5h119q0 76 39.5 106.5t98 30.5t93.5 -38t35 -86t-11.5 -74.5 t-35.5 -57.5l-338 -414v-106z" />
<glyph unicode="&#xbe;" horiz-adv-x="1683" d="M98 817q4 -120 84 -185q73 -59 185 -59q114 0 187 65q77 68 77 191q0 154 -125 205q110 52 110 189q0 111 -70.5 177t-177.5 66t-179 -62.5t-78 -172.5h116q4 59 41 94t94.5 35t97.5 -35t40 -101q0 -143 -140 -143h-18v-102h18q78 0 116 -40t38 -111t-42 -109.5 t-102 -38.5t-104.5 32.5t-48.5 104.5h-119zM461 0h123l684 1458h-123zM1038 131h353v-131h114v131h97v109h-97v215h-114v-215h-226l310 634h-127l-310 -634v-109z" />
<glyph unicode="&#xbf;" horiz-adv-x="1017" d="M94 -93q0 -77 30 -145.5t82 -119.5q109 -105 273 -105q166 0 274.5 108.5t108.5 266.5h-147q0 -98 -63 -169q-66 -73 -171.5 -73t-172 68.5t-66.5 173.5q0 53 19.5 92t47.5 82l166 238q66 94 66 192v84h-148v-82q0 -63 -37 -119l-168 -241q-41 -59 -67.5 -116.5 t-26.5 -134.5zM379 836h174v172h-174v-172z" />
<glyph unicode="&#xc0;" horiz-adv-x="1251" d="M25 0h165l117 330h637l117 -330h166l-535 1458h-131zM354 465l275 770l270 -770h-545zM362 1913l221 -313h135l-180 313h-176z" />
<glyph unicode="&#xc1;" horiz-adv-x="1251" d="M25 0h165l117 330h637l117 -330h166l-535 1458h-131zM354 465l275 770l270 -770h-545zM518 1600h135l221 313h-176z" />
<glyph unicode="&#xc2;" horiz-adv-x="1251" d="M25 0h165l117 330h637l117 -330h166l-535 1458h-131zM292 1600h142l184 213l184 -213h142l-256 313h-140zM354 465l275 770l270 -770h-545z" />
<glyph unicode="&#xc3;" horiz-adv-x="1251" d="M25 0h165l117 330h637l117 -330h166l-535 1458h-131zM288 1726l76 -73q45 45 70.5 55t53.5 10q39 0 94 -33t87.5 -45t71.5 -12t84 17.5t115 87.5l-76 73q-45 -45 -72 -55t-54 -10q-46 0 -97.5 32t-82 45t-62 13t-52.5 -3t-44 -15q-51 -26 -112 -87zM354 465l275 770 l270 -770h-545z" />
<glyph unicode="&#xc4;" horiz-adv-x="1251" d="M25 0h165l117 330h637l117 -330h166l-535 1458h-131zM327 1616h148v182h-148v-182zM354 465l275 770l270 -770h-545zM761 1616h148v182h-148v-182z" />
<glyph unicode="&#xc5;" horiz-adv-x="1251" d="M25 0h165l117 330h637l117 -330h166l-535 1458h-131zM354 465l275 770l270 -770h-545zM376 1776q0 -100 72 -172t170 -72t170 72t72 173q0 50 -19.5 94t-52.5 77q-70 70 -170 70q-98 0 -170 -72t-72 -170zM477 1776q0 59 41 99t100 40t100 -40t41 -99t-41 -100t-100 -41 t-100 41t-41 100z" />
<glyph unicode="&#xc6;" horiz-adv-x="1888" d="M16 0h170l181 346h505v-346h904v139h-750v523h639v139h-639v518h750v139h-990zM434 481l438 838v-838h-438z" />
<glyph unicode="&#xc7;" horiz-adv-x="1304" d="M156 729q0 -270 15 -349q28 -147 112 -231q161 -161 383 -161q195 0 332 114t173 320h-155q-29 -135 -121 -215t-229 -80q-154 0 -252 102q-67 67 -86 171q-17 89 -17 329t13.5 312.5t34 112.5t61.5 82t107.5 68.5t138.5 26.5q137 0 227 -80t119 -215h159 q-36 206 -173 320t-332 114q-222 0 -373 -151q-94 -94 -120 -231q-17 -89 -17 -359zM475 -442h162l121 305h-137z" />
<glyph unicode="&#xc8;" horiz-adv-x="1228" d="M211 0h905v139h-749v527h639v139h-639v514h749v139h-905v-1458zM385 1913l221 -313h135l-180 313h-176z" />
<glyph unicode="&#xc9;" horiz-adv-x="1228" d="M211 0h905v139h-749v527h639v139h-639v514h749v139h-905v-1458zM541 1600h135l221 313h-176z" />
<glyph unicode="&#xca;" horiz-adv-x="1228" d="M211 0h905v139h-749v527h639v139h-639v514h749v139h-905v-1458zM315 1600h142l184 213l184 -213h142l-256 313h-140z" />
<glyph unicode="&#xcb;" horiz-adv-x="1228" d="M211 0h905v139h-749v527h639v139h-639v514h749v139h-905v-1458zM350 1616h148v182h-148v-182zM784 1616h148v182h-148v-182z" />
<glyph unicode="&#xcc;" horiz-adv-x="577" d="M211 0h156v1458h-156v-1458zM213 1913l221 -313h135l-180 313h-176z" />
<glyph unicode="&#xcd;" horiz-adv-x="577" d="M211 0h156v1458h-156v-1458zM213 1600h135l221 313h-176z" />
<glyph unicode="&#xce;" horiz-adv-x="577" d="M211 0h156v1458h-156v-1458zM211 1600h142l184 213l184 -213h142l-256 313h-140z" />
<glyph unicode="&#xcf;" horiz-adv-x="577" d="M211 0h156v1458h-156v-1458zM213 1616h148v182h-148v-182zM647 1616h148v182h-148v-182z" />
<glyph unicode="&#xd0;" horiz-adv-x="1406" d="M80 676h160v-676h489q152 0 259 62q150 85 220 233q34 71 38.5 190t4.5 241t-2 197.5t-11 130.5q-14 86 -77 185q-143 219 -420 219h-501v-661h-160v-121zM397 137v539h330v121h-330v524h316q104 0 177 -34t132 -113q49 -67 59.5 -138t12.5 -142t2 -175t-2 -172t-8 -114 q-12 -84 -54 -144q-102 -152 -319 -152h-316z" />
<glyph unicode="&#xd1;" horiz-adv-x="1499" d="M211 0h156v1169l774 -1169h147v1458h-155v-1165l-775 1165h-147v-1458zM420 1726l76 -73q45 45 70.5 55t53.5 10q39 0 94 -33t87.5 -45t71.5 -12t84 17.5t115 87.5l-76 73q-45 -45 -72 -55t-54 -10q-46 0 -97.5 32t-82 45t-62 13t-52.5 -3t-44 -15q-51 -26 -112 -87z" />
<glyph unicode="&#xd2;" horiz-adv-x="1331" d="M156 729q0 -270 15 -349q28 -147 122 -241q152 -152 373 -151q221 0 372 151q94 94 120 231q18 94 18 359t-15.5 346.5t-43 137t-79.5 106.5q-152 152 -372 151q-221 0 -373 -151q-94 -94 -120 -231q-17 -89 -17 -359zM311 729q0 240 13.5 311.5t34 111.5t61.5 82 t107.5 69.5t138.5 27.5q150 0 252 -104q66 -66 86 -171q16 -87 16 -327t-13.5 -311.5t-34 -111.5t-61 -82t-107.5 -69.5t-138 -27.5q-152 0 -252 104q-67 67 -86 171q-17 87 -17 327zM410 1913l221 -313h135l-180 313h-176z" />
<glyph unicode="&#xd3;" horiz-adv-x="1331" d="M156 729q0 -270 15 -349q28 -147 122 -241q152 -152 373 -151q221 0 372 151q94 94 120 231q18 94 18 359t-15.5 346.5t-43 137t-79.5 106.5q-152 152 -372 151q-221 0 -373 -151q-94 -94 -120 -231q-17 -89 -17 -359zM311 729q0 240 13.5 311.5t34 111.5t61.5 82 t107.5 69.5t138.5 27.5q150 0 252 -104q66 -66 86 -171q16 -87 16 -327t-13.5 -311.5t-34 -111.5t-61 -82t-107.5 -69.5t-138 -27.5q-152 0 -252 104q-67 67 -86 171q-17 87 -17 327zM566 1600h135l221 313h-176z" />
<glyph unicode="&#xd4;" horiz-adv-x="1331" d="M156 729q0 -270 15 -349q28 -147 122 -241q152 -152 373 -151q221 0 372 151q94 94 120 231q18 94 18 359t-15.5 346.5t-43 137t-79.5 106.5q-152 152 -372 151q-221 0 -373 -151q-94 -94 -120 -231q-17 -89 -17 -359zM311 729q0 240 13.5 311.5t34 111.5t61.5 82 t107.5 69.5t138.5 27.5q150 0 252 -104q66 -66 86 -171q16 -87 16 -327t-13.5 -311.5t-34 -111.5t-61 -82t-107.5 -69.5t-138 -27.5q-152 0 -252 104q-67 67 -86 171q-17 87 -17 327zM340 1600h142l184 213l184 -213h142l-256 313h-140z" />
<glyph unicode="&#xd5;" horiz-adv-x="1331" d="M156 729q0 -270 15 -349q28 -147 122 -241q152 -152 373 -151q221 0 372 151q94 94 120 231q18 94 18 359t-15.5 346.5t-43 137t-79.5 106.5q-152 152 -372 151q-221 0 -373 -151q-94 -94 -120 -231q-17 -89 -17 -359zM311 729q0 240 13.5 311.5t34 111.5t61.5 82 t107.5 69.5t138.5 27.5q150 0 252 -104q66 -66 86 -171q16 -87 16 -327t-13.5 -311.5t-34 -111.5t-61 -82t-107.5 -69.5t-138 -27.5q-152 0 -252 104q-67 67 -86 171q-17 87 -17 327zM336 1726l76 -73q45 45 70.5 55t53.5 10q39 0 94 -33t87.5 -45t71.5 -12t84 17.5 t115 87.5l-76 73q-45 -45 -72 -55t-54 -10q-46 0 -97.5 32t-82 45t-62 13t-52.5 -3t-44 -15q-51 -26 -112 -87z" />
<glyph unicode="&#xd6;" horiz-adv-x="1331" d="M156 729q0 -270 15 -349q28 -147 122 -241q152 -152 373 -151q221 0 372 151q94 94 120 231q18 94 18 359t-15.5 346.5t-43 137t-79.5 106.5q-152 152 -372 151q-221 0 -373 -151q-94 -94 -120 -231q-17 -89 -17 -359zM311 729q0 240 13.5 311.5t34 111.5t61.5 82 t107.5 69.5t138.5 27.5q150 0 252 -104q66 -66 86 -171q16 -87 16 -327t-13.5 -311.5t-34 -111.5t-61 -82t-107.5 -69.5t-138 -27.5q-152 0 -252 104q-67 67 -86 171q-17 87 -17 327zM375 1616h148v182h-148v-182zM809 1616h148v182h-148v-182z" />
<glyph unicode="&#xd7;" d="M133 244l92 -92l310 309l309 -309l92 92l-311 309l311 309l-92 92l-309 -311l-310 311l-92 -92l309 -309z" />
<glyph unicode="&#xd8;" horiz-adv-x="1335" d="M156 729q0 -270 15 -349q28 -147 122 -241l16 -16l-102 -213h133l68 143q115 -66 242 -65q237 0 388 151q94 94 120 231q18 94 18 359t-15.5 346.5t-42.5 136.5q-27 54 -96 123l102 213h-133l-69 -141q-113 63 -256 63q-221 0 -373 -151q-94 -94 -120 -231 q-17 -89 -17 -359zM311 736.5q0 107.5 3 186t14 133.5q19 104 76 162q111 113 262 113q109 0 196 -59l-479 -1004q-64 85 -70 289q-2 72 -2 179.5zM469 186l479 1004q44 -58 55 -137.5t13 -151.5t2 -179.5t-3 -186t-13 -133.5q-35 -180 -198 -248q-67 -27 -129 -27 q-115 0 -206 59z" />
<glyph unicode="&#xd9;" horiz-adv-x="1396" d="M190 481q0 -217 144 -357q140 -136 364 -136q222 0 366 136q144 137 144 357v977h-155v-964q0 -167 -98 -267t-257 -100t-257 100q-95 97 -95 267v964h-156v-977zM442 1913l222 -314h135l-181 314h-176z" />
<glyph unicode="&#xda;" horiz-adv-x="1396" d="M190 481q0 -217 144 -357q140 -136 364 -136q222 0 366 136q144 137 144 357v977h-155v-964q0 -167 -98 -267t-257 -100t-257 100q-95 97 -95 267v964h-156v-977zM598 1599h135l221 314h-176z" />
<glyph unicode="&#xdb;" horiz-adv-x="1396" d="M190 481q0 -217 144 -357q140 -136 364 -136q222 0 366 136q144 137 144 357v977h-155v-964q0 -167 -98 -267t-257 -100t-257 100q-95 97 -95 267v964h-156v-977zM373 1599h141l184 213l185 -213h141l-256 314h-139z" />
<glyph unicode="&#xdc;" horiz-adv-x="1396" d="M190 481q0 -217 144 -357q140 -136 364 -136q222 0 366 136q144 137 144 357v977h-155v-964q0 -167 -98 -267t-257 -100t-257 100q-95 97 -95 267v964h-156v-977zM408 1616h147v182h-147v-182zM842 1616h147v182h-147v-182z" />
<glyph unicode="&#xdd;" horiz-adv-x="1054" d="M16 1458l435 -856v-602h155v602l430 856h-168l-340 -698l-344 698h-168zM426 1599h135l221 314h-176z" />
<glyph unicode="&#xde;" horiz-adv-x="1314" d="M211 0h156v307h387q202 0 326 116q124 117 124 312q0 197 -124 313q-125 117 -326 117h-387v293h-156v-1458zM367 446v578h372q137 0 223.5 -72t86.5 -217t-86 -217t-224 -72h-372z" />
<glyph unicode="&#xdf;" horiz-adv-x="1138" d="M184 0h150v1067q0 123 58.5 199.5t192.5 76.5t195 -59q64 -64 64 -152t-50.5 -138t-129.5 -50h-74v-123h90q78 0 121 -43t43 -127v-346q0 -96 -51 -137q-27 -23 -51.5 -32t-69.5 -9h-82v-127h110q133 0 212 74t79 215v354q0 101 -21 140q-36 65 -108 106q129 87 129 244 q0 169 -117 258q-107 82 -287.5 82t-291.5 -103.5t-111 -296.5v-1073z" />
<glyph unicode="&#xe0;" horiz-adv-x="1077" d="M104 285q0 -129 76 -205q47 -49 113.5 -70.5t169 -21.5t167 23.5t126.5 84.5v-96h147v684q0 336 -403 336q-123 0 -206 -31t-151 -119l101 -92q45 63 100 89t174 26q238 0 238 -221v-97h-303q-170 0 -259.5 -78.5t-89.5 -211.5zM248 287q0 178 225 178h283v-109 q0 -125 -49 -173t-105.5 -58t-150 -10t-148.5 42t-55 130zM260 1530l221 -313h135l-180 313h-176z" />
<glyph unicode="&#xe1;" horiz-adv-x="1077" d="M104 285q0 -129 76 -205q47 -49 113.5 -70.5t169 -21.5t167 23.5t126.5 84.5v-96h147v684q0 336 -403 336q-123 0 -206 -31t-151 -119l101 -92q45 63 100 89t174 26q238 0 238 -221v-97h-303q-170 0 -259.5 -78.5t-89.5 -211.5zM248 287q0 178 225 178h283v-109 q0 -125 -49 -173t-105.5 -58t-150 -10t-148.5 42t-55 130zM416 1217h135l221 313h-176z" />
<glyph unicode="&#xe2;" horiz-adv-x="1077" d="M104 285q0 -129 76 -205q47 -49 113.5 -70.5t169 -21.5t167 23.5t126.5 84.5v-96h147v684q0 336 -403 336q-123 0 -206 -31t-151 -119l101 -92q45 63 100 89t174 26q238 0 238 -221v-97h-303q-170 0 -259.5 -78.5t-89.5 -211.5zM190 1217h142l184 213l184 -213h142 l-256 313h-140zM248 287q0 178 225 178h283v-109q0 -125 -49 -173t-105.5 -58t-150 -10t-148.5 42t-55 130z" />
<glyph unicode="&#xe3;" horiz-adv-x="1077" d="M104 285q0 -129 76 -205q47 -49 113.5 -70.5t169 -21.5t167 23.5t126.5 84.5v-96h147v684q0 336 -403 336q-123 0 -206 -31t-151 -119l101 -92q45 63 100 89t174 26q238 0 238 -221v-97h-303q-170 0 -259.5 -78.5t-89.5 -211.5zM186 1343l76 -73q45 45 70.5 55t53.5 10 q39 0 94 -33t87.5 -45t71.5 -12t84 17.5t115 87.5l-76 73q-45 -45 -72 -55t-54 -10q-46 0 -97.5 32t-82 45t-62 13t-52.5 -3t-44 -15q-51 -26 -112 -87zM248 287q0 178 225 178h283v-109q0 -125 -49 -173t-105.5 -58t-150 -10t-148.5 42t-55 130z" />
<glyph unicode="&#xe4;" horiz-adv-x="1077" d="M104 285q0 -129 76 -205q47 -49 113.5 -70.5t169 -21.5t167 23.5t126.5 84.5v-96h147v684q0 336 -403 336q-123 0 -206 -31t-151 -119l101 -92q45 63 100 89t174 26q238 0 238 -221v-97h-303q-170 0 -259.5 -78.5t-89.5 -211.5zM225 1233h148v182h-148v-182zM248 287 q0 178 225 178h283v-109q0 -125 -49 -173t-105.5 -58t-150 -10t-148.5 42t-55 130zM659 1233h148v182h-148v-182z" />
<glyph unicode="&#xe5;" horiz-adv-x="1077" d="M104 285q0 -129 76 -205q47 -49 113.5 -70.5t169 -21.5t167 23.5t126.5 84.5v-96h147v684q0 336 -403 336q-123 0 -206 -31t-151 -119l101 -92q45 63 100 89t174 26q238 0 238 -221v-97h-303q-170 0 -259.5 -78.5t-89.5 -211.5zM248 287q0 178 225 178h283v-109 q0 -125 -49 -173t-105.5 -58t-150 -10t-148.5 42t-55 130zM274 1407q0 -100 72 -172t170 -72t170 72t72 173q0 50 -19.5 94t-52.5 77q-70 70 -170 70q-98 0 -170 -72t-72 -170zM375 1407q0 59 41 99t100 40t100 -40t41 -99t-41 -100t-100 -41t-100 41t-41 100z" />
<glyph unicode="&#xe6;" horiz-adv-x="1710" d="M104 285q0 -129 76 -205q47 -49 113.5 -70.5t184.5 -21.5t202 37.5t154 136.5q106 -174 358 -174q123 0 189 30q105 46 184 125l-103 88q-59 -59 -116.5 -86.5t-145.5 -27.5q-145 0 -222 91t-77 257h682v67q0 225 -108.5 356.5t-311.5 131.5t-309 -158q-84 158 -354 158 q-123 0 -206 -31t-151 -119l101 -92q45 63 100 89t174 26q238 0 238 -221v-97h-303q-170 0 -259.5 -78.5t-89.5 -211.5zM248 287q0 178 225 178h283v-109q0 -125 -49 -173t-105.5 -58t-150 -10t-148.5 42t-55 130zM901 575q7 100 34.5 169t91 110t142.5 41q80 0 143 -41 q106 -68 120 -226q2 -22 4 -53h-535z" />
<glyph unicode="&#xe7;" horiz-adv-x="1011" d="M129 504q0 -251 128 -388q119 -128 318 -128q104 0 179 32.5t153 116.5l-100 96q-57 -63 -108.5 -88.5t-124.5 -25.5q-150 0 -232 114q-66 92 -66 271q0 275 166 356q60 29 132.5 29t124 -24.5t108.5 -88.5l100 94q-78 84 -152.5 117t-175 33t-181.5 -33t-141 -97 q-128 -138 -128 -386zM358 -442h162l121 305h-137z" />
<glyph unicode="&#xe8;" horiz-adv-x="1085" d="M129 504q0 -257 121 -392q112 -124 319 -124q124 0 189 30q100 45 180 125l-100 88q-59 -59 -117.5 -86.5t-147.5 -27.5q-145 0 -221 91t-76 257h680v67q0 225 -108.5 356.5t-303 131.5t-305 -135t-110.5 -381zM276 575q3 97 31.5 167.5t92 111.5t143.5 41t143 -41 q74 -47 106 -148q11 -37 17 -131h-533zM293 1530l221 -313h135l-180 313h-176z" />
<glyph unicode="&#xe9;" horiz-adv-x="1085" d="M129 504q0 -257 121 -392q112 -124 319 -124q124 0 189 30q100 45 180 125l-100 88q-59 -59 -117.5 -86.5t-147.5 -27.5q-145 0 -221 91t-76 257h680v67q0 225 -108.5 356.5t-303 131.5t-305 -135t-110.5 -381zM276 575q3 97 31.5 167.5t92 111.5t143.5 41t143 -41 q74 -47 106 -148q11 -37 17 -131h-533zM449 1217h135l221 313h-176z" />
<glyph unicode="&#xea;" horiz-adv-x="1085" d="M129 504q0 -257 121 -392q112 -124 319 -124q124 0 189 30q100 45 180 125l-100 88q-59 -59 -117.5 -86.5t-147.5 -27.5q-145 0 -221 91t-76 257h680v67q0 225 -108.5 356.5t-303 131.5t-305 -135t-110.5 -381zM223 1217h142l184 213l184 -213h142l-256 313h-140z M276 575q3 97 31.5 167.5t92 111.5t143.5 41t143 -41q74 -47 106 -148q11 -37 17 -131h-533z" />
<glyph unicode="&#xeb;" horiz-adv-x="1085" d="M129 504q0 -257 121 -392q112 -124 319 -124q124 0 189 30q100 45 180 125l-100 88q-59 -59 -117.5 -86.5t-147.5 -27.5q-145 0 -221 91t-76 257h680v67q0 225 -108.5 356.5t-303 131.5t-305 -135t-110.5 -381zM258 1233h148v182h-148v-182zM276 575q3 97 31.5 167.5 t92 111.5t143.5 41t143 -41q74 -47 106 -148q11 -37 17 -131h-533zM692 1233h148v182h-148v-182z" />
<glyph unicode="&#xec;" horiz-adv-x="518" d="M184 0h148v1008h-148v-1008zM186 1530l221 -313h135l-180 313h-176z" />
<glyph unicode="&#xed;" horiz-adv-x="518" d="M184 0h148v1008h-148v-1008zM187 1217h135l221 313h-176z" />
<glyph unicode="&#xee;" horiz-adv-x="518" d="M184 0h148v1008h-148v-1008zM186 1217h142l184 213l184 -213h142l-256 313h-140z" />
<glyph unicode="&#xef;" horiz-adv-x="518" d="M184 0h148v1008h-148v-1008zM186 1233h148v182h-148v-182zM620 1233h148v182h-148v-182z" />
<glyph unicode="&#xf0;" horiz-adv-x="1085" d="M135 500q0 -117 21.5 -219.5t99.5 -180.5q108 -112 287 -112q178 0 286 112q78 78 100.5 180.5t22.5 195t-5 145.5t-19 105q-23 91 -105 235l-129 227h111v106h-168l-96 168h-154l96 -168h-180v-106h238l118 -203q-57 26 -153 21q-156 -10 -250 -107 q-78 -78 -99.5 -180.5t-21.5 -218.5zM283 478.5q0 64.5 2 107.5t10 83q18 89 67 140q74 74 182 74t181 -74q71 -76 78 -223q2 -43 2 -107.5t-12.5 -147.5t-77 -147.5t-171.5 -64.5t-172 64.5t-77 147.5t-12 147.5z" />
<glyph unicode="&#xf1;" horiz-adv-x="1150" d="M184 0h148v621q0 133 67.5 200.5t182.5 67.5t181 -66.5t66 -201.5v-621h148v645q0 178 -99.5 276.5t-269 98.5t-276.5 -123v111h-148v-1008zM254 1343l76 -73q45 45 70.5 55t53.5 10q39 0 94 -33t87.5 -45t71.5 -12t84 17.5t115 87.5l-76 73q-45 -45 -72 -55t-54 -10 q-46 0 -97.5 32t-82 45t-62 13t-52.5 -3t-44 -15q-51 -26 -112 -87z" />
<glyph unicode="&#xf2;" horiz-adv-x="1085" d="M131 504q0 -279 123 -402q114 -114 289 -114q174 0 288 114q76 78 99.5 181.5t23.5 220.5t-23.5 220t-88.5 168q-125 128 -299 128t-289 -115q-123 -123 -123 -401zM266 1530l221 -313h135l-180 313h-176zM279 504q0 227 77.5 306t187.5 79t183 -74q71 -76 78 -225 q2 -43 2 -86q0 -234 -77 -309.5t-186.5 -75.5t-183.5 74q-72 67 -79 225q-2 43 -2 86z" />
<glyph unicode="&#xf3;" horiz-adv-x="1085" d="M131 504q0 -279 123 -402q114 -114 289 -114q174 0 288 114q76 78 99.5 181.5t23.5 220.5t-23.5 220t-88.5 168q-125 128 -299 128t-289 -115q-123 -123 -123 -401zM279 504q0 227 77.5 306t187.5 79t183 -74q71 -76 78 -225q2 -43 2 -86q0 -234 -77 -309.5t-186.5 -75.5 t-183.5 74q-72 67 -79 225q-2 43 -2 86zM443 1217h135l221 313h-176z" />
<glyph unicode="&#xf4;" horiz-adv-x="1085" d="M131 504q0 -279 123 -402q114 -114 289 -114q174 0 288 114q76 78 99.5 181.5t23.5 220.5t-23.5 220t-88.5 168q-125 128 -299 128t-289 -115q-123 -123 -123 -401zM217 1217h142l184 213l184 -213h142l-256 313h-140zM279 504q0 227 77.5 306t187.5 79t183 -74 q71 -76 78 -225q2 -43 2 -86q0 -234 -77 -309.5t-186.5 -75.5t-183.5 74q-72 67 -79 225q-2 43 -2 86z" />
<glyph unicode="&#xf5;" horiz-adv-x="1085" d="M131 504q0 -279 123 -402q114 -114 289 -114q174 0 288 114q76 78 99.5 181.5t23.5 220.5t-23.5 220t-88.5 168q-125 128 -299 128t-289 -115q-123 -123 -123 -401zM213 1343l76 -73q45 45 70.5 55t53.5 10q39 0 94 -33t87.5 -45t71.5 -12t84 17.5t115 87.5l-76 73 q-45 -45 -72 -55t-54 -10q-46 0 -97.5 32t-82 45t-62 13t-52.5 -3t-44 -15q-51 -26 -112 -87zM279 504q0 227 77.5 306t187.5 79t183 -74q71 -76 78 -225q2 -43 2 -86q0 -234 -77 -309.5t-186.5 -75.5t-183.5 74q-72 67 -79 225q-2 43 -2 86z" />
<glyph unicode="&#xf6;" horiz-adv-x="1085" d="M131 504q0 -279 123 -402q114 -114 289 -114q174 0 288 114q76 78 99.5 181.5t23.5 220.5t-23.5 220t-88.5 168q-125 128 -299 128t-289 -115q-123 -123 -123 -401zM252 1233h148v182h-148v-182zM279 504q0 227 77.5 306t187.5 79t183 -74q71 -76 78 -225q2 -43 2 -86 q0 -234 -77 -309.5t-186.5 -75.5t-183.5 74q-72 67 -79 225q-2 43 -2 86zM686 1233h148v182h-148v-182z" />
<glyph unicode="&#xf7;" d="M104 483h861v138h-861v-138zM446 100h177v176h-177v-176zM446 827h177v177h-177v-177z" />
<glyph unicode="&#xf8;" horiz-adv-x="1085" d="M131 504q0 -117 22.5 -218.5t96.5 -179.5l-117 -196h117l78 133q92 -55 199 -55q190 0 304 114q76 78 99.5 181.5t23.5 220.5t-22.5 218t-95.5 179l116 197h-114l-80 -133q-92 55 -199 55q-190 0 -305 -115q-123 -123 -123 -401zM279 489.5q0 57.5 2 100.5t11 84 q20 91 68 141q74 74 171.5 74t158.5 -43l-360 -615q-35 55 -43 128t-8 130.5zM395 164l363 612q35 -55 42 -127.5t7 -130t-2 -100.5t-11 -84q-19 -95 -67 -141q-74 -74 -171 -74t-161 45z" />
<glyph unicode="&#xf9;" horiz-adv-x="1153" d="M174 365q0 -181 98 -279t270 -98t279 125v-113h146v1008h-148v-621q0 -133 -68.5 -200.5t-183.5 -67.5t-180 66.5t-65 201.5v621h-148v-643zM313 1530l222 -313h135l-181 313h-176z" />
<glyph unicode="&#xfa;" horiz-adv-x="1153" d="M174 365q0 -181 98 -279t270 -98t279 125v-113h146v1008h-148v-621q0 -133 -68.5 -200.5t-183.5 -67.5t-180 66.5t-65 201.5v621h-148v-643zM469 1217h135l221 313h-176z" />
<glyph unicode="&#xfb;" horiz-adv-x="1153" d="M174 365q0 -181 98 -279t270 -98t279 125v-113h146v1008h-148v-621q0 -133 -68.5 -200.5t-183.5 -67.5t-180 66.5t-65 201.5v621h-148v-643zM244 1217h141l184 213l185 -213h141l-256 313h-139z" />
<glyph unicode="&#xfc;" horiz-adv-x="1153" d="M174 365q0 -181 98 -279t270 -98t279 125v-113h146v1008h-148v-621q0 -133 -68.5 -200.5t-183.5 -67.5t-180 66.5t-65 201.5v621h-148v-643zM279 1233h147v182h-147v-182zM713 1233h147v182h-147v-182z" />
<glyph unicode="&#xfd;" horiz-adv-x="913" d="M23 1008l362 -988l-72 -196q-25 -70 -57.5 -97.5t-108.5 -27.5h-45v-131h64q124 0 196 70q43 39 72 118l459 1252h-160l-274 -809l-277 809h-159zM356 1217h136l221 313h-176z" />
<glyph unicode="&#xfe;" horiz-adv-x="1118" d="M184 -451h148v570q61 -78 130.5 -104.5t150.5 -26.5q227 0 311 176q45 93 53 187t8 153q0 305 -123 428q-88 88 -246 88q-84 0 -153.5 -25.5t-130.5 -103.5v567h-148v-1909zM332 504q0 177 44 266q60 119 210 119q149 0 208 -119q44 -87 44 -266t-44 -266 q-58 -119 -208 -119q-214 0 -245 241q-9 70 -9 144z" />
<glyph unicode="&#xff;" horiz-adv-x="913" d="M23 1008l362 -988l-72 -196q-25 -70 -57.5 -97.5t-108.5 -27.5h-45v-131h64q124 0 196 70q43 39 72 118l459 1252h-160l-274 -809l-277 809h-159zM166 1233h147v182h-147v-182zM600 1233h148v182h-148v-182z" />
<glyph unicode="&#x152;" horiz-adv-x="2025" d="M156 729q0 -270 15 -350t43 -134.5t79 -105.5q152 -152 372 -151.5t353 164.5v-152h893v137h-737l2 533h622v131h-622l-2 520h733v137h-889v-151q-132 163 -352.5 163t-372.5 -151q-95 -95 -120 -229q-17 -91 -17 -361zM311 729q0 240 13.5 311.5t34 111.5t61.5 82 t107.5 69.5t138.5 27.5q150 0 252 -104q63 -63 84 -171q16 -87 16 -327t-13.5 -311.5t-33 -111.5t-60 -82t-107.5 -69.5t-138 -27.5q-152 0 -252 104q-67 67 -86 171q-17 87 -17 327z" />
<glyph unicode="&#x153;" horiz-adv-x="1763" d="M131 504q0 -279 123 -402q114 -114 289 -114q115 0 205 51t137 143q109 -195 362 -194q124 0 189 30q100 45 180 125l-100 88q-59 -59 -118 -86.5t-147 -27.5q-145 0 -221 91t-76 257h680v67q0 225 -108.5 356.5t-304.5 131.5q-229 0 -334 -195q-47 92 -138.5 143.5 t-194.5 51.5q-185 0 -300 -115q-123 -123 -123 -401zM279 504q0 227 77.5 306t187.5 79t183 -74q71 -76 78 -225q2 -43 2 -86q0 -234 -77 -309.5t-186.5 -75.5t-183.5 74q-72 67 -79 225q-2 43 -2 86zM954 575q3 97 31.5 167.5t92 111.5t143.5 41t143 -41t85.5 -96.5 t29 -88.5t10.5 -94h-535z" />
<glyph unicode="&#x178;" horiz-adv-x="1054" d="M16 1458l435 -856v-602h155v602l430 856h-168l-340 -698l-344 698h-168zM236 1616h147v182h-147v-182zM670 1616h147v182h-147v-182z" />
<glyph unicode="&#x2c6;" horiz-adv-x="1024" d="M186 1217h142l184 213l184 -213h142l-256 313h-140z" />
<glyph unicode="&#x2dc;" horiz-adv-x="1024" d="M182 1343l76 -73q45 45 70.5 55t53.5 10q39 0 94 -33t87.5 -45t71.5 -12t84 17.5t115 87.5l-76 73q-45 -45 -72 -55t-54 -10q-46 0 -97.5 32t-82 45t-62 13t-52.5 -3t-44 -15q-51 -26 -112 -87z" />
<glyph unicode="&#x2000;" horiz-adv-x="1009" />
<glyph unicode="&#x2001;" horiz-adv-x="2018" />
<glyph unicode="&#x2002;" horiz-adv-x="1009" />
<glyph unicode="&#x2003;" horiz-adv-x="2018" />
<glyph unicode="&#x2004;" horiz-adv-x="672" />
<glyph unicode="&#x2005;" horiz-adv-x="504" />
<glyph unicode="&#x2006;" horiz-adv-x="336" />
<glyph unicode="&#x2007;" horiz-adv-x="336" />
<glyph unicode="&#x2008;" horiz-adv-x="252" />
<glyph unicode="&#x2009;" horiz-adv-x="403" />
<glyph unicode="&#x200a;" horiz-adv-x="112" />
<glyph unicode="&#x2010;" horiz-adv-x="872" d="M156 483h561v138h-561v-138z" />
<glyph unicode="&#x2011;" horiz-adv-x="872" d="M156 483h561v138h-561v-138z" />
<glyph unicode="&#x2012;" horiz-adv-x="872" d="M156 483h561v138h-561v-138z" />
<glyph unicode="&#x2013;" d="M106 483h857v138h-857v-138z" />
<glyph unicode="&#x2014;" horiz-adv-x="1871" d="M156 483h1560v140h-1560v-140z" />
<glyph unicode="&#x2018;" horiz-adv-x="538" d="M180 1286h178v334l-178 -162v-172z" />
<glyph unicode="&#x2019;" horiz-adv-x="538" d="M180 1124l178 162v172h-178v-334z" />
<glyph unicode="&#x201a;" horiz-adv-x="538" d="M180 -162l178 162v172h-178v-334z" />
<glyph unicode="&#x201c;" horiz-adv-x="888" d="M180 1286h178v334l-178 -162v-172zM528 1286h181v334l-181 -162v-172z" />
<glyph unicode="&#x201d;" horiz-adv-x="888" d="M180 1124l178 162v172h-178v-334zM528 1124l181 162v172h-181v-334z" />
<glyph unicode="&#x201e;" horiz-adv-x="888" d="M180 -162l178 162v172h-178v-334zM528 -162l181 162v172h-181v-334z" />
<glyph unicode="&#x2022;" horiz-adv-x="1089" d="M211 684q0 -136 98 -236q97 -98 236 -98q138 0 235 98q99 101 99 236t-99 236q-97 98 -235 98q-139 0 -236 -98q-98 -100 -98 -236z" />
<glyph unicode="&#x2026;" horiz-adv-x="1550" d="M180 0h189v188h-189v-188zM680 0h188v188h-188v-188zM1182 0h188v188h-188v-188z" />
<glyph unicode="&#x202f;" horiz-adv-x="403" />
<glyph unicode="&#x2039;" horiz-adv-x="671" d="M82 549l430 -430v182l-246 248l246 246v184z" />
<glyph unicode="&#x203a;" horiz-adv-x="671" d="M160 119l430 430l-430 430v-184l248 -246l-248 -248v-182z" />
<glyph unicode="&#x205f;" horiz-adv-x="504" />
<glyph unicode="&#x2122;" horiz-adv-x="1718" d="M74 1350h241v-766h119v766h244v108h-604v-108zM831 584h119v630l209 -413h115l209 413v-630h116v874h-116l-266 -530l-267 530h-119v-874z" />
<glyph unicode="&#xe000;" horiz-adv-x="1003" d="M0 0v1004h1004v-1004h-1004z" />
<glyph unicode="&#xfb01;" horiz-adv-x="1150" d="M86 889h129v-889h147v889h216v112h-216v187q0 147 136 147h80v127h-107q-122 0 -193 -80q-63 -71 -63 -190v-191h-129v-112zM807 1309h168v151h-168v-151zM817 0h148v1001h-148v-1001z" />
<glyph unicode="&#xfb02;" horiz-adv-x="1232" d="M86 889h129v-889h147v889h216v112h-216v187q0 147 136 147h80v127h-107q-122 0 -193 -80q-63 -71 -63 -190v-191h-129v-112zM809 268q0 -115 62.5 -191.5t195.5 -76.5h107v127h-82q-78 0 -107 37t-29 110v1184h-147v-1190z" />
</font>
</defs>
</svg>
